<?xml version="1.0" standalone="no"?>
<!DOCTYPE svg PUBLIC "-//W3C//DTD SVG 1.1//EN" "http://www.w3.org/Graphics/SVG/1.1/DTD/svg11.dtd" >
<svg xmlns="http://www.w3.org/2000/svg" xmlns:xlink="http://www.w3.org/1999/xlink" version="1.1">
<metadata></metadata>
<defs>
<font id="zombiea" horiz-adv-x="819" >
<font-face units-per-em="2048" ascent="1638" descent="-410" />
<missing-glyph horiz-adv-x="630" />
<glyph horiz-adv-x="0" />
<glyph unicode="&#xd;" horiz-adv-x="630" />
<glyph unicode=" "  horiz-adv-x="630" />
<glyph unicode="&#x09;" horiz-adv-x="630" />
<glyph unicode="&#xa0;" horiz-adv-x="630" />
<glyph unicode="!" horiz-adv-x="583" d="M37 1366q6 10 11 48t24 48q12 -6 39.5 -25.5t44.5 -19.5q12 0 24 6q16 25 88 33t72 55q0 14 -2 23q2 10 10 12t19 4l10 -39q12 -20 26 -20q10 0 31 16.5t33 16.5t27 -17h32q18 0 27 -10q2 -23 -18.5 -57.5t-12.5 -61.5q14 -43 15 -92q0 -25 -4.5 -74t-4.5 -75l-4 -330 q0 -59 -16 -101t-57 -75q25 -45 51 -105q37 -78 49 -104q8 -25 8 -39q0 -18 -10 -29q-49 -16 -84 -27.5t-62 -27.5q-14 -14 -26 -57t-37 -54q-10 -2 -30.5 -24.5t-41.5 -9.5q0 31 -37 61q-45 37 -53 55l-119 156q-10 23 21 43q18 12 22 23q20 125 21 274q0 154 -21.5 303.5 t-64.5 296.5z" />
<glyph unicode="$" horiz-adv-x="587" d="M37 860q16 12 33 25q4 12 -5.5 30.5t-9.5 22.5q0 8 11 16q76 -23 106 -28q63 -14 113 -15q12 12 8 21q-18 12 -109 49q-125 51 -125 141q0 84 86 170q33 33 93 80q14 16 19 47t9 48.5t11.5 16.5t15.5 -1q8 -20 14 -34.5t27 -14.5q6 4 21.5 33.5t25.5 29.5t22 -29 q6 -14 -1 -37.5t-7 -25.5q0 -18 21 -27q37 0 76.5 -1t68.5 -15q-8 -8 -8 -25q2 -16 2 -22q0 -23 -18 -29q4 -18 10 -37q0 -12 -19 -12q-45 4 -59 -20q0 -53 -47 -54q-29 2 -41 2q-23 0 -31 -14q0 -27 38 -42t43 -19.5t77 -40.5q47 -25 57 -64q4 -6 7 -22.5t3 -32.5 q0 -57 -36 -109q-29 -8 -47.5 -51t-49.5 -55q-12 -10 -63 -25q-78 -23 -68 -80q-8 -14 -16 -14q-23 8 -43 16q-25 18 -27 17q-14 -20 -43 -25q-8 8 -8 19q6 23 6 34q0 10 -8 19q-10 20 -70 59q-47 29 -36 76l-23 23q-14 14 -6 26z" />
<glyph unicode="%" horiz-adv-x="1931" d="M35 1139q0 66 16.5 110.5t63.5 77.5q25 4 51 23q74 51 80 53q23 14 114 43q37 12 70 29q29 10 53.5 -19.5t44.5 -25.5q49 4 119 -21q96 -35 115 -39q61 -35 91 -99.5t30 -140.5q16 -10 20 -10q35 45 76 115q57 100 70 119q2 23 8 34t18 19q14 0 18.5 -27.5t24.5 -27.5 q12 8 32.5 50t41.5 42q10 0 27 -10q-4 -33 10 -39q23 14 38 22t33 6q4 -16 6.5 -26.5t12.5 -14.5q18 -2 34.5 26t37.5 19q4 -8 -1.5 -29.5t-5.5 -23.5q0 -14 15 -22q12 -2 31.5 10t27.5 10l-2 -43q-35 -55 -135 -235q-51 -92 -84 -144q-4 -18 12 -22q94 43 191 86 q49 -18 98 -37q10 0 27 6q115 0 172 -14q92 -23 135 -92q8 -18 12 -48t4 -53v-33q0 -27 1 -49t14 -51q-2 -8 -2 -20q0 -18 11 -48t11 -43q0 -16 -8 -32l-74 -146q-61 -41 -115 -73q-80 -47 -118 -70q-20 -8 -49 12.5t-41 20.5t-19 -4q-14 0 -49 -6.5t-55 -6.5 q-27 0 -41.5 7.5t-24.5 21.5q-10 8 -14 30.5t-19 26.5q-8 -8 -18 -8t-30.5 13.5t-30.5 11.5q-18 18 -84 71q-53 43 -72 82l-12 -6q-16 -33 -60.5 -89t-60.5 -87q-23 0 -35 28.5t-33 28.5q-6 -6 -41 -75q-14 -29 -28 -43q-23 -4 -57 9t-42 13q-27 0 -45 -26q-16 8 -25.5 21 t-9.5 30q0 14 8.5 36.5t18.5 51.5q12 25 10 41q-6 10 -16 6q-53 -86 -105 -172q-10 4 -14 6q-16 12 -27 8v23q41 74 88 180q39 92 80 184q0 20 -10 27q-37 -8 -62.5 -14.5t-43.5 -6.5q-51 0 -82 37h-51q-70 0 -115 12.5t-67.5 53.5t-87 88t-85.5 76q0 29 -8 102.5t-8 112.5z M381 1063q0 -31 18 -49q20 -14 43 -15q43 0 80 33q25 14 38 34.5t5 43.5q-33 70 -119 70q-20 -6 -35.5 -10.5t-21.5 -18.5q2 -18 -3 -49t-5 -39zM1434 664q0 -23 2 -43.5t4 -38.5q12 -16 32.5 -22.5t45.5 -6.5q43 2 63 2q20 8 21 23q0 8 -12.5 30.5t-12.5 32.5 q-37 37 -53 51q-33 29 -64 37q-27 -18 -26 -65z" />
<glyph unicode="&#x26;" horiz-adv-x="1333" d="M45 594q0 20 12 41q29 70 62 127q23 41 74 123q0 37 -33 78q-47 57 -51 69q-12 31 -17.5 51.5t-5.5 49.5q0 16 2 24q172 178 348 322q20 -8 57 7t48 15q27 0 37 -39l38 -20q82 -20 166 -62q49 -25 154 -88q23 -16 30 -23t7 -18q-12 10 -35 -6q-14 -10 -25 -4 q-14 16 -45 12q-8 -2 -7 -8t3 -14q14 -8 31.5 -17.5t30.5 -3.5q4 6 13 6.5t17 -2.5q20 -33 21 -59q0 -45 -59 -102q-74 -72 -89 -99q-6 -12 -6 -20q0 -14 11 -29q16 -16 22 -24q27 -14 36 -15.5t17 4.5q63 53 129 107q78 66 117 125q20 4 27 -15q-20 -55 -39 -108 q8 -10 16 -10q25 10 35 12q6 4 22.5 38t43.5 21q8 -14 8 -28q0 -10 -6.5 -33t-6.5 -33q0 -20 27 -35q6 -27 -16.5 -66.5t-22.5 -56.5q0 -20 17 -38q-6 -41 -52 -88q-25 -25 -47 -48l4 -28l78 -70q47 -43 53 -82q-27 -27 -26 -41q0 -6 4 -14q16 -16 16 -31q0 -10 -8 -18 q-20 -12 -68 16q-29 18 -36 19q-23 0 -29 -41q-10 -8 -23 -9q-27 8 -39 9q-10 0 -18 -9q2 -16 5 -26t1 -21q-18 -10 -30.5 -16t-16.5 -19l8 -45q-41 -8 -84 21q-119 76 -131 78l-286 -70q-39 0 -72 11.5t-66 37.5q-76 20 -151.5 57t-151.5 91q-14 18 -28.5 39.5t-6.5 40.5 q12 18 13 36q0 16 -13 33q-14 12 -14 31zM461 528q6 -18 37 -18q18 8 32.5 20.5t6.5 30.5l-31 37q-23 0 -33 -33t-12 -37zM537 1102q10 -10 24 -10q14 12 17 14q18 18 12 39q-6 22 -37 14q-14 -6 -15 -26.5t-1 -30.5z" />
<glyph unicode="(" horiz-adv-x="8628" d="M0 -4h420v1638h-420v-1638zM655 848q0 4 4 20q66 156 150 273q100 137 231 223q27 0 62 14q80 33 96 33q29 0 55 -20q23 0 43 14q31 20 62 43q10 6 26.5 14t22.5 8q14 1 8 -22q-12 -33 -72 -86q-37 -33 -49 -51q-39 -51 -75 -101q14 -10 35.5 7.5t27.5 19.5l23 23 q14 14 28 6q0 -53 -45 -117q-66 -92 -71 -107q-49 -100 -64 -141q-33 -86 -33 -153q0 -39 11.5 -74t33.5 -68q41 -86 103 -176q20 -29 125 -170q-6 -31 -37 -31q-29 4 -43 4q-23 0 -33 -16q-188 0 -354 178q-133 143 -213 350q-4 12 -31 46t-27 57zM1485 526q4 18 47 42 t33 61q29 31 67 30q12 4 33 -7t31 -7q0 33 38 47.5t46 28.5q-6 29 -11 59q0 27 19 43q2 6 1 18.5t-3 26.5q0 18 16 23q43 0 72 -29q31 -49 172 -221q66 -82 100 -133q12 -18 13 -41q0 -27 -21 -45q-10 -16 -56 -21.5t-46 -35.5q0 -14 2 -23q-51 -23 -84 -46.5t-60 -62.5 q4 -35 -32.5 -34.5t-44.5 -8.5q-43 -8 -93 41q-23 23 -45 48zM1513 950q39 236 78 473q10 8 31 9q20 -2 31 -2q27 0 35 26q-4 31 12 35q35 0 63 -25q6 -4 20.5 -30.5t35.5 -20.5q14 35 21 48.5t20 13.5q14 -18 20 -61.5t16 -61.5q27 6 43.5 42t22.5 44q8 6 10 43t33 28 l18 -26q2 -20 2 -29q0 -96 -65 -211q-49 -80 -72 -117q-16 -12 -72.5 -29.5t-78.5 -47.5q-49 -43 -113 -43q-25 -29 -37 -41q-27 -27 -49 -27q-10 0 -16 2zM2279 213q0 39 29 92q14 27 31 53q100 193 201 387q14 2 28.5 -16t30.5 -14q14 8 45 57q23 37 59 31q18 -27 27 -37 q17 -21 37 -25q12 -8 14 -38.5t21 -36.5q10 0 24.5 18t24.5 18t16 -6q6 -23 6 -45q0 -37 -12 -68.5t-37 -78.5q-47 -94 -69 -142q-43 -84 -78 -137q-14 -23 -36 -31t-48 -8q-29 2 -43 2q-16 0 -25 -2q-25 -8 -67.5 10.5t-55.5 18.5q-27 0 -45 -25q-14 0 -26.5 3.5 t-51.5 19.5zM3011 492q0 10 6 20l22 37l250 252q12 14 33 14q14 0 26.5 -8.5t14.5 -22.5q2 -18 6 -36q10 0 31.5 11t36.5 3q6 -4 21 -21.5t26 -17.5q10 0 18 9t19 9q10 0 21 -6t26 -14q-2 -6 -2 -13.5v-9.5q0 -35 26 -45q27 0 27 -18q4 -14 -2 -29.5t-13 -34.5q0 -12 11 -22 q14 0 33.5 17.5t29.5 17.5t21 -9q4 -16 4 -26q0 -29 -16.5 -54.5t-45.5 -52.5l-252 -245q-10 -6 -36 -7q-25 0 -37 3q-8 12 -68 57q-45 35 -53 72q-35 37 -70 73q-45 43 -86 49q-29 18 -28 48zM3011 1260q0 14 6 26q37 33 86 80q92 88 147 119q18 18 29 28q20 20 33 21 q12 0 24 -23q-6 -25 -6 -36q0 -10 10 -17q37 14 71 30.5t73 45.5q16 0 16 -23v-26q0 -14 10 -21q18 -2 29.5 -8t3.5 -22q-10 -10 -16 -42t-23 -44q6 -18 33 -31.5t33 -32.5q10 -6 20 -6t20.5 4t24.5 10q4 6 9.5 3t11.5 -5q8 -23 -2 -45q-2 -6 -52 -65q-96 -96 -146 -140.5 t-97 -68.5q-25 4 -65 26.5t-54 26.5q-41 41 -56.5 51t-33.5 10q-39 53 -58 78q-35 45 -75 62q-6 16 -6 35zM3840 219q55 248 113 498q12 14 43 14q14 0 28.5 1t24.5 11q10 -4 30.5 -7t43.5 -3q20 0 63 4t70 4q16 6 29.5 10.5t23.5 4.5q23 -1 31 -21q2 -14 2 -27.5v-27.5 q0 -113 -47 -238q-23 -59 -103 -217q-20 -31 -65 -57q-59 -35 -72 -45q-27 2 -33 25.5t-10 48.5q6 20 12 41q0 10 -10 18q-29 -23 -59.5 -36t-63.5 -13q-27 0 -51 12zM3860 1104q0 12 9 26q78 80 155.5 146.5t167.5 124.5q23 -5 31 -17q-6 -27 -11 -40t-18 -29q8 -12 26.5 0 t33.5 2q10 -27 22 -53q14 -4 32.5 16t33.5 10q12 -18 12 -35q0 -20 -22 -51q-29 -39 -33 -47q6 -10 14 -10q18 8 39 18q4 2 23.5 18.5t31.5 10.5q0 -2 7.5 -44t19.5 -58q0 -25 -10.5 -45.5t-30.5 -47.5q-76 -76 -113 -110q-68 -63 -123 -96q-45 0 -80.5 58t-65.5 67.5 t-46 52.5t-43 51q-4 10 -33 36.5t-29 45.5zM4684 1036q0 37 2 74q20 92 41.5 158.5t60.5 124.5q20 -6 56 7t47 13q25 0 41 -29l24 2q27 41 43.5 64t28.5 23q14 0 22 -33q0 -31 -10 -96.5t-10 -100.5q0 -49 16 -88q27 23 43 70q39 104 64 129l78 32q20 0 34 -22q10 4 29 -4 t29 -4q18 25 28 35q18 23 37 30q29 -4 43 -4q31 0 58 21q20 4 16 -27q-4 -25 -37 -125q-25 -78 -24 -131q-4 -37 -7 -72q-6 -41 -32 -57h-25q-25 0 -39 -5t-26 -24q-33 4 -52 4q-37 0 -62.5 -4t-76.5 -20q-31 0 -49 18.5t-33 48.5q-12 0 -22 -8q-31 -27 -41.5 -28.5 t-18.5 -1.5q-10 0 -39.5 7t-44.5 7q-18 0 -35 -10q-12 6 -22 6q-16 0 -41 -22.5t-41 -22.5q-10 0 -22.5 7t-21.5 21.5t-9 36.5zM5636 1112q0 29 25 109q12 41 12 65q27 25 37 35q20 20 24 41q10 8 27 8q25 -4 37 -4q18 0 27 20v23q0 35 22 37q33 8 54.5 12t39.5 4 q27 0 45 -10q14 12 31.5 19.5t36.5 7.5q8 0 24 -4q56 -19 76 -68q-2 -12 1 -27.5t22 -17.5q12 0 36.5 8t36.5 8t25 -6q2 -18 29.5 -55t27.5 -57t-22 -41q6 -6 32.5 -12.5t30.5 -24.5q0 -29 -26 -76q-16 -31 -21 -45q-27 -14 -39 -21q-23 -14 -20 -36q4 -6 29.5 -24.5 t15.5 -39.5q-78 -10 -90 -13t-43 -20q-10 -23 -28.5 -32t-47.5 -9q-20 0 -33.5 3t-19.5 3q-20 0 -59.5 -22.5t-59.5 -22.5q-23 0 -43 19q-10 35 -44 39t-56 6l-99 53q-12 18 10.5 54t22.5 46q0 16 -27 27q-27 6 -41 14.5t-18 26.5zM6537 1051v26q25 72 50.5 151t25.5 144v27 q-4 20 -4 31q8 25 31 24q33 -6 47 -6q29 0 32 33q12 6 21 6q12 0 36.5 -14.5t37.5 -14.5q14 0 24 10q16 -4 43 11.5t37 15.5q14 0 27 -10q20 -33 57 -33q19 0 33 8q18 -4 29.5 -8t23.5 0q12 18 28.5 30.5t37.5 4.5q14 -4 42.5 -22.5t45.5 -18.5q16 0 28 10q31 2 45 2 q20 0 29 -12q6 -37 6 -74q0 -98 -51 -213q-14 -33 -59 -119q-16 -20 -23 -28q-14 -18 -31 -11q-16 10 -32 11q-16 0 -50 -11.5t-49 -11.5q-12 -12 -30 -12q-8 0 -32 6t-36 4q-8 16 -10 25q-8 16 -20.5 22t-28.5 6q-20 0 -62.5 -31.5t-75.5 -23.5q-12 0 -22 19q0 20 11 54 t11 50q-6 16 -32 0q-6 -6 -23.5 -31.5t-32.5 -25.5q-8 0 -18 6q-16 8 -41 -10.5t-33 -18.5q-14 0 -28 23h-15zM7512 240q94 98 180 229q74 113 140 250q0 10 12 43q6 16 6 29q0 16 -10 26q6 27 -4 51q-16 31 -23 45q-57 139 -168 334q-57 98 -115 199q14 12 46 12 q25 -2 38 -2q29 0 46 14q41 8 98 -25.5t92 -33.5q115 -61 205 -192q57 -84 131 -246q20 -20 26.5 -45t6.5 -60q0 -25 -2 -49t-5 -49q0 -55 -26 -119q-16 -39 -57 -109.5t-80 -138.5q-55 -78 -123 -94q-2 0 -66 -28q-41 -18 -74 -15q-8 -12 -22 -19t-43 -7q-29 2 -43 2 q-41 0 -59 -31h-45q-23 0 -38.5 5t-23.5 24z" />
<glyph unicode="-" d="M37 647q-2 16 19.5 35.5t21.5 34.5q0 8 -6 20q-4 14 2 25.5t22 15.5q45 0 56 17q-8 31 -15 63q4 4 17 12q23 16 22 27q0 10 -4 16q-8 49 -13 73t-18 38q0 23 11 29l235 -13l393 -24q18 -8 19 -37q-4 -37 -4 -51q-27 -12 -54 -64q-16 -31 -34 -43q-2 -14 18 -21t8 -26 q-8 -14 -34.5 -26.5t-34.5 -26.5q8 -16 18 -25.5t-2 -19.5q-31 -18 -65.5 -21.5t-67.5 -3.5h-60.5t-65.5 -4t-131 -15t-173 -22q-23 2 -45 6q-25 8 -35 31z" />
<glyph unicode="." horiz-adv-x="565" d="M39 489q35 16 63 54q33 49 50 69q14 12 49 13q29 -2 41 -2q23 16 49 28.5t51 12.5q29 -1 49 -21l162 -235q4 -16 4 -29q0 -18 -14 -25q-18 12 -45 13q-25 0 -62 -13q-4 -2 -43 -45q-25 -27 -47 -26q-6 0 -18 4q-47 25 -92 49q-18 0 -31 -19q-35 0 -80 52q-29 33 -45 45 q-2 2 -21.5 29.5t-19.5 45.5z" />
<glyph unicode="/" horiz-adv-x="1095" d="M27 236q4 25 23.5 64.5t19.5 59.5q-41 8 -41 41q0 10 12 23l195 356q82 150 147 326q55 150 109 344q6 10 16 10q6 0 27 -10q16 -23 32 -45q23 -25 51 -21q20 31 40 61t24 44q10 12 29 12q18 0 32 -14q4 -8 5 -25q-8 -41 -15 -80l10 2q20 16 50 50q53 61 92 61 q-8 -33 -8 -49q0 -14 10 -23q12 -2 27.5 13.5t22.5 14.5t31.5 4t28.5 5q18 0 27 -16q-4 -14 -17.5 -52t-13.5 -61q14 -8 56 21q23 16 36 10q-10 -53 -67 -135q-29 -41 -57 -80q-193 -356 -326 -746q-27 -53 -39 -79q-25 -49 -57 -70q-14 -29 -23 -41q-14 -25 -35 -35 q-25 0 -51 21q-39 31 -78 63q-23 -20 -47 -39.5t-53 -23.5q-6 10 -6 22q0 10 5 32.5t5 27.5q0 18 -23 26q-20 -6 -33.5 17.5t-29.5 19.5q-29 -37 -62.5 -61.5t-80.5 -44.5z" />
<glyph unicode="0" horiz-adv-x="1239" d="M2 854q0 133 31 219q39 111 135 166q20 55 92 98q59 35 119 72q20 8 51 16.5t55 8.5q55 0 93 -39l84 4q12 6 25 8t28 2q37 0 80 -20q102 -49 133 -50q33 -8 47 -12q41 -12 67 -43q51 -78 105 -156q55 -92 70 -174q27 -78 26 -182q0 -51 -5 -97t-17 -104q-47 -78 -70 -116 q-43 -70 -88 -115q-18 -18 -49 -20.5t-60 -2.5q-14 -8 -84 -67q-49 -43 -92 -43q-16 0 -24 2q-57 -8 -85 -9t-42 -1q-129 0 -217 51q-16 8 -80 57q-49 37 -86 43q-104 63 -158.5 170t-54.5 238q0 25 -8.5 48t-20.5 48zM436 803q10 -45 58 -94q59 -55 84 -80q12 -6 22 -6 q16 0 42 17t36 19q88 20 100 136q6 80 8 114q-6 35 -40.5 59.5t-65.5 47.5q-10 0 -38 2t-44 2q-43 0 -68 -14q-47 -102 -94 -203z" />
<glyph unicode="1" horiz-adv-x="753" d="M23 1186q199 88 397 178q35 0 74 41q51 53 65 61q25 4 31 -26.5t16 -30.5q11 0 21 8q20 14 41 29q8 -10 -0.5 -28.5t0.5 -31.5q6 -16 43 -34q18 -10 24 -23q0 -84 -12 -194q-29 -260 -29 -328q0 -72 -2 -222.5t-2 -219.5q-16 -14 -43 -15q-14 0 -29.5 2t-29.5 4 q-25 0 -34 -11t-11 -34q-18 -18 -19 -69q2 -35 2 -52q0 -31 -9 -47t-40 -16q-8 4 -25.5 33.5t-41.5 25.5q-39 0 -53.5 53.5t-34.5 65.5q-18 0 -36 -25.5t-32 -25.5q-10 0 -25 8l-12 25q-4 33 -4 51v41q0 37 -5 60.5t-28 43.5l-6 324q0 43 4 78q14 123 15 129q0 18 -5 51 q-16 14 -49 14q-27 -2 -39 -2q-33 0 -49 31q10 18 -11.5 39.5t-16.5 38.5z" />
<glyph unicode="2" horiz-adv-x="1085" d="M37 240l287 471q4 29 -25 38t-53 17q-51 43 -62 104q-59 41 -81.5 105.5t-22.5 150.5q0 49 4 85t6 59q8 8 19 8q25 -4 34 -4q20 0 29 22q51 55 102 113q68 63 129 64q20 0 56 -11q78 -23 157 -45q8 0 33 4q84 -12 148 -88q29 -37 39 -128t32 -126q2 -12 2 -23.5v-23.5 q0 -106 -71 -237q-63 -111 -127 -222q-6 -18 18 -30l447 14q12 2 16 -10q-4 -25 -42 -41.5t-46 -26.5q6 -16 13 -25.5t1 -17.5q-10 -14 -47 -24.5t-43 -32.5q4 -10 28.5 -15.5t12.5 -27.5q-18 -14 -66.5 -20.5t-68.5 -18.5q0 -18 24.5 -27.5t26.5 -21.5q-6 -6 -59 -23 q-37 -10 -27 -49q-27 -20 -54.5 -23t-86.5 -3q-68 0 -225.5 4t-169.5 4q-90 0 -183 -6q-23 0 -39 7t-20 27q6 18 -11.5 30.5t-33.5 23.5zM373 995q0 -27 24.5 -41t36.5 -14t23 10q6 12 32.5 44t26.5 53q-20 12 -42.5 21t-45.5 9q-27 0 -45 -16q0 -14 -5 -38t-5 -28z" />
<glyph unicode="3" horiz-adv-x="837" d="M37 1155q18 37 51 72q6 6 113 98q2 2 86 72q29 25 57 26q23 -6 98.5 -12t114.5 -31q135 -27 217 -143q35 -63 35 -141q0 -76 -32 -147.5t-87 -137.5q0 -18 24.5 -39.5t26.5 -26.5q45 -43 59.5 -104t14.5 -143q-16 -51 -24 -78q-16 -47 -35 -78q0 -72 -94 -113 q-45 -18 -89 -36q-39 -8 -79.5 -16.5t-79.5 -8.5q-45 0 -77 11t-61 44q-59 8 -83 19q-45 18 -66 61q-18 8 -36.5 20.5t-22.5 30.5q0 29 20 29q31 -6 64 -10q72 16 106 24q63 16 90 56q8 23 8 45q0 25 -8 51q-14 41 -26 84q-10 16 -89 49q-35 14 -49 43q-45 0 -74.5 5 t-48.5 30q-2 20 7.5 26.5t27.5 6.5h27q27 0 37 10q51 18 110 53q47 27 107 68q6 23 6 41q0 47 -47 100q-12 14 -90 86q-16 -4 -23 -4q-16 0 -44.5 5t-33.5 5q-31 0 -49 -27q-6 -2 -22 -2q-37 0 -37 27z" />
<glyph unicode="4" horiz-adv-x="1126" d="M25 547q-10 16 4 39.5t14 27.5q0 10 -10 19q8 18 33 33q68 37 73 45q68 49 111 100q53 61 74 125q109 111 272 299q109 125 160 184q8 6 21.5 40t37.5 24q6 -8 14.5 -27.5t18.5 -25.5q18 -2 41.5 27.5t34.5 29.5q12 0 24 -21q2 -20 -23.5 -66t-25.5 -65q0 -31 49 -41 q16 23 39 76q43 98 62 127q24 2 20 -33l-12 -104l-82 -320q-16 -61 -23 -82q-14 -47 -37 -79q2 -16 3 -23q0 -14 -2.5 -41t-2.5 -39q0 -31 11 -51q31 -25 77 -25q27 0 39 2q45 12 64 15q10 -12 -10 -35q-12 -14 -13 -20q0 -6 9 -15q23 4 32 4q10 0 19 -8q-4 -18 -34 -43 t-32 -35q6 -8 19 -8q18 0 22 -2q0 -16 -8 -33q-16 -31 -31 -59q-6 -8 -41 -30.5t-35 -43.5q6 -10 33 -16t29 -25q-16 -10 -45 -10h-37q-16 0 -28.5 -4t-20.5 -19v-34q0 -29 3 -42.5t17 -27.5q2 -14 -12 -17.5t-25 3.5q-12 6 -27.5 29.5t-29.5 29.5q-10 -12 -18 -18 q-23 -14 -43 -5q-16 12 -31 25q-10 -6 -14 -14t-9 -15q-14 -23 -30 -24q-25 4 -39 4q-20 0 -43 -2t-45 -4q-29 0 -49 10l-15 6q-4 12 -4 37q2 37 2 55q0 25 -7 39.5t-34 24.5q-39 0 -118.5 -8.5t-120.5 -8.5q-33 0 -57.5 2t-51.5 11q-23 18 -37 65q-29 90 -69 111zM406 700 q12 -10 38 -10h21q14 4 30.5 5t16.5 44v29q0 25 -25 25q-10 -10 -32 -31q-41 -35 -49 -62z" />
<glyph unicode="5" horiz-adv-x="966" d="M31 440q2 20 31.5 31.5t37.5 26.5q20 -10 39 -13.5t51 -3.5h31q14 -4 64 -35q39 -25 63 -16q31 45 31 113q0 39 -9.5 79t-27.5 76q-82 61 -166 70q-14 -12 -37.5 -20.5t-46.5 -12.5q0 72 6 172q14 233 15 295v25q0 82 -13 159q33 16 76 17q25 0 77 -7t69 -7q20 0 30 2 l340 10q47 0 137.5 16.5t135.5 16.5q-2 -20 -32 -39t-26 -41q-8 -23 -45 -52.5t-45 -46.5l12 -10q14 -2 39 4t27 6q18 0 27 -18q-29 -33 -110 -62.5t-112 -72.5q-25 -10 -69 -19q-111 -20 -120 -23t-17.5 -15.5t0.5 -30.5q8 -6 90 -41q33 -14 53 -33q35 -16 96 -88 q55 -63 101 -80q29 -63 28 -129q0 -127 -108 -268q-29 -39 -125 -137q-39 -29 -105 -52q-49 -16 -69 -22q-139 0 -258 74.5t-166 201.5z" />
<glyph unicode="6" horiz-adv-x="1091" d="M14 651q0 61 27 129t53 131l-18 66q25 63 90 135q184 201 188 209q6 4 49 49q31 31 60 43q-4 -23 -4 -33q0 -8 8 -14q18 4 45 24.5t41 24.5q29 14 57 31q16 8 39 10l8 -12q0 -8 -12 -26.5t-12 -24.5q0 -10 12 -15q72 20 146 41q8 -4 10 -24.5t16 -20.5q8 0 21 4 q31 10 36 11q8 0 19 -7q0 -10 -14.5 -30.5t-14.5 -30.5t8 -18q14 -8 42 4t30 12q14 0 21 -21l-7 -20q-123 -92 -243 -184q0 -23 22.5 -34t44.5 -20q82 0 160 -84q59 -65 102 -161q20 -47 21 -99q0 -29 -11.5 -102.5t-11.5 -97.5q-23 -68 -78 -128.5t-126 -101.5 q-18 -4 -99 -43q-59 -29 -106 -22q-12 10 -33.5 14t-44.5 4h-43q-27 0 -41 4q-176 43 -186 47q-55 23 -101 66q-100 20 -129 176q-18 100 -41 139zM311 649q0 -27 19.5 -55.5t38.5 -52.5q25 -23 67 -23q12 0 38 2t38 2q43 0 76 7t53 30q10 35 10 64q0 51 -30 84 q-12 10 -27 43q-25 53 -62 53q-147 -14 -217 -127q-4 -10 -4 -27z" />
<glyph unicode="7" horiz-adv-x="1081" d="M23 928q4 35 71.5 51t67.5 47q0 10 -10 37q6 4 45 55q29 37 63 29l8 6q-6 10 -26 10q-29 0 -35 2t-68.5 13.5t-93.5 38.5q0 23 10 24q12 0 36 -5t28 -5q23 0 33 16q-2 10 -26 31.5t-17 44.5q4 37 24 37q106 -18 251.5 -27.5t281.5 -9.5h43h39h32h29h25h76.5t76.5 2h23 q20 10 35.5 16.5t31.5 -2.5q14 -20 15 -45q0 -25 -15 -57q-25 -53 -24 -57q-20 -18 -21 -62q2 -35 2 -51v-18q-4 -8 -4 -11q-39 -98 -90 -283.5t-84 -271.5q-18 -6 -26.5 -30.5t-10.5 -34.5q0 -10 8.5 -29.5t1.5 -36.5q-35 -4 -50 -57t-54 -53q-29 -23 -35 -26t-20 -1 q-4 20 -25 31q-29 10 -41 14q-14 6 -28.5 -11.5t-20.5 -17.5q-8 0 -20.5 10.5t-40.5 10.5h-35q-12 -8 -19.5 -12t-17.5 -4q-6 18 -14.5 72t-16.5 87q33 121 84 256q70 168 103 252q0 25 -25 25q-100 -18 -224 -27.5t-249 -9.5q-25 6 -41 12t-16 25z" />
<glyph unicode="8" horiz-adv-x="972" d="M25 643q0 53 16 113.5t68 158.5q0 29 -17 70q-37 90 -37 115q0 10 4 30q-6 23 -6 41q0 53 41 111q25 35 84 92q12 2 31.5 -4t21.5 -6q12 0 21 18q-8 27 14 45q31 18 43 25q74 23 107 31q61 14 119 14q57 0 106 -20.5t82 -65.5q16 0 26.5 23.5t20.5 23.5q6 0 23.5 -9 t27.5 -30.5t17 -52.5q31 -23 63 -45q37 -31 49 -64q12 -66 13 -135q0 -76 -17.5 -140t-56.5 -120q-10 -27 14 -57q33 -41 37 -55q31 -68 31 -136q0 -82 -34 -155.5t-97 -149.5q-121 -111 -144 -125q-49 -31 -102 -30q-20 0 -31 2q-82 14 -168 51q-98 43 -260 149 q-33 37 -55.5 91.5t-42.5 107.5q-12 47 -12 88zM399 618q0 -14 2 -20q10 -23 31 -35t49 -18q35 0 59.5 7t39.5 32q4 16 4 24q0 27 -23 64q-18 25 -24 37q-18 18 -54 18q-35 0 -53 -18q-16 -45 -31 -91zM414 1067q4 -2 45 -57q27 -37 59 -27q16 8 29.5 23.5t9.5 33.5l-43 68 q-6 4 -18 4q-16 0 -52 -27q-18 -14 -30 -18z" />
<glyph unicode="9" horiz-adv-x="1155" d="M33 928q2 18 2 26q-2 39 -2 60q0 29 7 51t26 39q-10 31 -11 51q0 51 45 106.5t88 106.5q53 53 127 75.5t164 22.5q45 0 73 -2t118 -14l49 10q45 0 94 -35q113 -80 150 -79q90 -102 124 -162q57 -96 58 -195q0 -92 -49 -192q-23 -47 -103 -172q0 -29 -22 -62 q-29 -35 -41 -51q-76 -86 -148 -154q-80 -76 -164 -135q-23 -20 -61 -20q-12 0 -49 7t-57 7q-35 0 -60 -22q-16 0 -28.5 1t-18.5 11q0 4 11.5 19.5t2.5 25.5q-16 6 -92 41q-55 27 -94 26q-35 0 -68 -20q-41 4 -51 14l4 13q61 43 123 88q70 51 121 98q8 27 -20.5 39t-53.5 24 q-90 47 -137 152q-27 59 -57 201zM438 1022q0 -35 27 -68q47 -51 94 -100q10 -6 23 -6q18 0 28 10q51 -4 82 43q23 41 45 84q10 31 -17.5 59.5t-51.5 55.5q-8 6 -19.5 27.5t-27.5 21.5q-43 -12 -93 -39q-33 -16 -84 -53q-6 -18 -6 -35z" />
<glyph unicode="?" d="M20 1325q16 16 52 16q43 -4 63 -4q27 0 42.5 7.5t27.5 33.5q37 0 114.5 -12t118.5 -12q-35 25 -162 71q-61 23 -98 48q10 8 27 8q8 0 26.5 -4t28.5 -4q181 -52 363 -101q53 -49 71 -131q12 -55 13 -162v-90q0 -29 -72 -108q-33 -37 -33 -68q0 -14 6 -31q0 -25 16.5 -43 t43.5 -26q4 -2 14 -4t31 -2h37q39 0 53 -13q0 -18 -17 -35q-25 -18 -34 -24t-54 -13.5t-61 -29.5q-31 -8 -43 -23q10 -41 59 -107.5t58 -107.5q-8 -47 -58.5 -85t-95.5 -72q-27 -12 -66.5 -22.5t-74.5 -10.5q-41 0 -76 14l-8 70q39 49 39 51q10 20 4 37q-53 -25 -103 -25 q-25 0 -47 6q-4 14 -17 22.5t-28 0.5q-8 -8 -28 -8q-18 0 -29 8q-23 23 6 33q31 27 61 59q39 41 93 115q4 29 -56 78q-33 27 -38 58.5t-15 48t-28.5 20.5t-20.5 12q0 94 61 188q16 25 129 162q10 18 -11 33.5t-30 19.5q-59 14 -119.5 33t-99.5 62q2 8 17 16h32 q-8 16 -31.5 22.5t-43.5 12.5q-8 10 -9 12z" />
<glyph unicode="A" horiz-adv-x="1495" d="M27 152q0 29 22 61q35 47 70 96q51 18 76 84q35 92 47 109q16 82 32 166q102 246 170 524q51 131 140 258q10 2 30.5 -4t30.5 -6q10 6 24.5 28.5t32.5 14.5q6 -6 12.5 -27.5t22.5 -25.5q16 4 37 38.5t35 34.5q15 1 31 -22q-4 -10 -8.5 -28.5t-2.5 -35.5q12 -12 36 -15 t44 -5q10 20 29 20q8 0 26.5 -8t28.5 -8q16 0 27 18q8 8 22 8q12 0 23 -6q31 -20 51 -59q12 -25 44 -134.5t77 -307.5q29 -125 70 -322q31 -94 55 -162q92 -252 98 -270q0 -29 -14 -33q-7 -2 -14 -2q-24 1 -55 25q-40 32 -52 32q-23 0 -43 -34q-20 2 -35.5 32.5t-34.5 32.5 q-10 -8 -10 -18q0 -6 3.5 -19.5t-3.5 -23.5q-27 -8 -53 -15q-10 0 -22.5 7.5t-33 41t-44.5 37.5q-10 -6 -11 -24q4 -27 4 -37q0 -6 -5 -9t-17 3q-23 29 -42.5 107.5t-51.5 109.5q-162 0 -299 -14q-10 -10 -52 -129q-18 -49 -49 -74q-12 -12 -32 -12q-29 6 -43 6t-31 -13 q-10 -2 -21.5 10.5t-13.5 14.5q-90 -35 -143 -94l-15 -2q4 39 4 57q0 14 -6 25q-23 -6 -30 -7q-8 0 -15 11q-2 10 6.5 27.5t8.5 23.5q0 10 -11 18q-18 -6 -37 -26q-43 -45 -57 -51zM744.5 764.5q5.5 -16.5 17.5 -23.5q14 2 41.5 0t32.5 -2q37 0 55 17q-4 39 -10.5 68.5 t-22.5 64.5q-8 25 -14.5 41t-26.5 20q-16 -18 -31 -55q-20 -51 -41 -102q-6 -12 -0.5 -28.5z" />
<glyph unicode="B" horiz-adv-x="1085" d="M-23 1313q18 6 29.5 12t18.5 18l2 60q16 0 35.5 6t39.5 12q33 -20 66 -39q10 0 20 13q12 -8 21.5 -14.5t19.5 -0.5q10 4 11 21q0 23 4 29q16 0 30 -9q47 -25 58 -26q12 -12 20 -17.5t19 2.5q10 8 14 35t23 33q14 0 25.5 -13.5t21.5 -25.5l319 -8q18 -2 21.5 -25.5 t11.5 -32.5q61 -23 111 -81q72 -92 143 -183q2 -8 2 -24q0 -27 -16 -58q-29 -45 -56 -90l-119 -141q-2 -27 15 -49q31 -37 61 -72q68 -86 68 -194q-20 -80 -71.5 -150t-127.5 -115q-27 -10 -59 -10q-25 0 -41 2q-63 8 -74 8h-33q-16 -6 -22 -8q-31 0 -90.5 8.5t-89.5 8.5 q-20 0 -31 -2q-12 10 -15 12q-18 18 -30 18q-8 0 -15 -4q-18 -12 -38.5 -24.5t-38.5 -10.5q-12 20 -19 31q-12 20 -31 16q-27 -41 -30 -47q-20 -25 -49 -32q-16 4 -25 4q-27 -2 -39 -2q-33 0 -45 20q10 41 14 102.5t4 120.5v119q0 80 5.5 141.5t21.5 118.5q2 8 2 23 q0 27 -8 55q-14 47 -15 65.5t-3.5 77t-2.5 107.5v151q-2 10 -26.5 24.5t-16.5 33.5zM451 1073q0 -20 2 -31q6 -12 8 -18t2 -27v-32q4 -16 20 -21q31 25 45 45q18 25 18 49q0 6 -1 13q-14 25 -34.5 43t-45.5 18q-14 -12 -14 -39zM453 561q0 -37 5 -60.5t19 -41.5 q31 6 51.5 18t28.5 37q2 9 2 17q-1 25 -23 51q-30 34 -59 67q-12 -2 -22 -4q0 -27 -1 -47t-1 -37z" />
<glyph unicode="C" horiz-adv-x="1085" d="M16 688q0 47 18.5 123t20.5 82q41 82 62 121q39 74 80 114q12 6 65 56q41 37 74 37q86 74 166 121t176 75q-16 -6 -31.5 -18.5t-17.5 -28.5l10 -8q45 14 97 32.5t87 26.5l2 -10q-51 -37 -100 -74q16 -8 37 -8q12 0 38.5 4t37.5 4q-6 -14 -42 -34.5t-36 -45.5q12 -4 35 -4 q18 0 57 8.5t61 8.5q2 -4 2 -31q0 -8 11 -14h51q-6 -23 -44 -33t-48 -31q0 -14 17.5 -19t21.5 -9q2 -6 -7.5 -20.5t3.5 -22.5q14 -8 30 -9q31 4 47 4t29 -6q-4 -8 -26.5 -17t-22.5 -28q10 -10 50 -14t48 -16q-20 -16 -68.5 -18.5t-71 -11.5t-130.5 -28q-154 -27 -197 -123 q-23 -18 -33 -30q-16 -20 -16 -41q0 -10 6 -23q63 -100 195 -147q31 -10 237 -60q-10 -14 -22 -21t-4 -20q16 -14 40.5 -22t49.5 -15q-31 -4 -52.5 -6t-33.5 -18q8 -18 -12.5 -33.5t-18.5 -30.5q-16 -6 -31 -6q-16 0 -33.5 2t-33.5 4q-29 0 -45 -16q16 -29 54 -43t73 -27 q4 -12 -8 -22q-4 -2 -23 -12q-59 -12 -90 -19.5t-49 -21.5l45 -60l-10 -10q-68 0 -136 25q-23 8 -200 102q-20 10 -66 43q-72 51 -117 57q-51 37 -100 88q-16 18 -145 174q-12 37 -13 74z" />
<glyph unicode="D" horiz-adv-x="1339" d="M27 1333q8 8 37.5 10.5t37.5 18.5q49 8 113 8q35 0 119 -4t88 -4q16 18 62 25.5t53 9.5h50t52 2q115 0 168 -20.5t92 -61.5q23 2 41 -31q10 -20 18 -26q102 -102 207 -203q98 -129 152 -271q0 -14 -21.5 -22t-25.5 -21q6 -31 6 -61q0 -96 -72 -199q-49 -70 -149 -166 q-53 -39 -107 -77q-66 -41 -127 -41q-10 0 -39 4q-45 -16 -125 -29q-211 -35 -219 -37q-31 0 -60.5 -1t-60.5 -1q-86 0 -148.5 16.5t-107.5 69.5q8 25 51.5 34t53.5 21q-10 12 -33 21q-51 16 -57 31q33 8 56.5 14t29.5 25q-39 0 -60.5 44t-33.5 56q0 12 17 32.5t7 37.5 q4 12 26.5 20t26.5 25l-24 407q-2 6 -19.5 20.5t-11.5 28.5q10 6 23.5 16.5t13.5 24.5q2 18 -20.5 37t-14.5 41q-27 16 -37 27q-23 18 -10 41q14 14 14 47q-2 16 -2 22q-16 18 -30 39zM610 590l13 -19q37 8 65 23q41 25 60 35q8 10 43 39q51 43 57 77q-31 41 -92 97 q-94 84 -103 92q-12 4 -18 4q-17 0 -23 -12z" />
<glyph unicode="E" horiz-adv-x="1001" d="M43 1165q10 20 12 38t2 46q0 29 -5 80t-5 64v24q4 16 4 25l12 12q20 2 55.5 -18.5t47.5 -20.5q20 0 31 23l8 39q33 0 42 -48.5t42 -54.5q41 0 123 8.5t123 8.5q27 0 40 -2q23 -2 50 2q82 12 88 12q41 0 67 -25q18 4 67.5 7.5t74.5 17.5q27 4 30 -10q4 -16 -19.5 -37 t-23.5 -27q0 -8 21 -20q18 4 24 -9q0 -16 -23.5 -29.5t-21.5 -31.5q4 -12 29 -18.5t25 -24.5q-6 -10 -33 -18.5t-29 -24.5q8 -10 36 -19.5t30 -25.5q-20 -8 -64.5 -14.5t-62.5 -12.5q4 -18 24.5 -26t42 -13.5t48 -9.5t22.5 -26q-10 -8 -27.5 -12.5t-36.5 -4.5q-16 0 -33.5 2 t-64.5 6t-123 4q-63 0 -129 -6q-20 -10 -16 -47l28 -18q125 10 198 15t163 5q0 -14 17.5 -29.5t17.5 -25.5q-8 -12 -50 -29.5t-42 -38.5q0 -8 8 -22q0 -18 -25.5 -31.5t-25.5 -30.5q6 -10 29.5 -23t23.5 -26q0 -6 -6 -16q-6 -8 4 -21.5t8 -21.5l-43 -23l-285 -10 q-12 -10 -12 -31q0 -10 5 -28.5t5 -24.5l19 -16q33 -2 57.5 -3t42.5 -1q49 0 106.5 3t127.5 11q8 -6 2.5 -21.5t-5.5 -17.5q0 -12 17 -14q29 6 41 6t18 -10q-4 -16 -20.5 -43t-18.5 -41q-25 -20 -49 -41q0 -6 14.5 -19.5t10.5 -25.5l-74 -39q0 -10 16.5 -19.5t6.5 -25.5 q-20 -16 -47 -26.5t-72 -10.5q-29 0 -62 4q-84 10 -104 10h-25q-16 -4 -26.5 -5t-40.5 -1q-14 0 -46 2t-48 2q-31 0 -54.5 -5t-46.5 -19q-10 -2 -24 2q-39 10 -45 10q-18 0 -29 -19q-27 2 -45 15q-29 18 -56 57q-29 16 -38 25q-20 14 -21 34q0 61 12.5 184.5t12.5 182.5 q0 135 -19 264q0 55 -5 147.5t-5 110.5z" />
<glyph unicode="F" horiz-adv-x="1001" d="M35 1352q4 8 4 22q-4 29 -4 41q0 23 18 35q14 -14 29 -14q10 0 24 8q33 18 41 18q12 0 23 -10q25 4 35 4q16 0 26 -14q8 -4 21.5 -32t32.5 -26q10 18 16 29.5t23 11.5q12 -2 30.5 -18t30.5 -18q47 0 147.5 8t129.5 8h36.5t42.5 -4q18 -6 54 7t49 13q27 0 43 -28 q-8 -8 -8 -21q8 -29 8 -39q0 -16 -21 -18q-18 -6 -37 -10q-20 -8 -22 -27q20 -10 49 -10h25q20 4 28 4q29 6 35 4q2 -5 2 -10q0 -20 -32 -42q-40 -26 -40 -32q0 -12 34 -22.5t53.5 -15.5t29.5 -13q0 -20 -50 -28.5t-50 -14.5q0 -8 39 -31q31 -10 33 -14q2 -12 -17.5 -23.5 t-11.5 -30.5q18 -18 47 -32.5t55 -26.5l2 -16q-10 -2 -30 -2q-23 0 -68 8t-70 8q-10 -8 -10 -16q4 -16 4 -23q0 -14 -12 -18q-16 -10 -28.5 -17.5t-8.5 -23.5q6 -8 30.5 -10.5t31.5 -16.5q2 -16 -11.5 -42t-13.5 -36q0 -18 20 -33q4 -16 -14 -38q-16 -2 -28.5 -3.5 t-16.5 -11.5q-2 -16 26.5 -31.5t28.5 -19.5q0 -8 -22 -16q-37 -6 -70 -7q-39 0 -92 9q-121 18 -152 18l-18 -24q0 -47 8 -137.5t8 -133.5q0 -41 -6 -84q-8 -10 -16 -10q-25 12 -35 16q-25 16 -38 42t-25 53q-18 6 -26.5 -14.5t-25.5 -14.5q-27 -6 -39 -6q-10 0 -16 18 q-20 -4 -47 -27.5t-35 -25.5q-16 -14 -58 -20.5t-61 -22.5q-12 2 -19 18.5t-13 32.5q0 86 2 174t4 178q0 152 -17 265l7 22q0 123 -6.5 233.5t-24.5 217.5zM473 985q-4 -12 21 -41q18 -2 53 -2q39 0 78 2t77 4l21 8q4 4 -2 19q-47 6 -117 12t-119 6z" />
<glyph unicode="G" horiz-adv-x="1288" d="M-31 780q0 23 15 43q8 12 32 37q35 104 113 211q59 80 168 189q49 49 143 77q135 41 154 49q68 10 115 16.5t90 6.5l6 -10q2 -8 -15.5 -29.5t-17.5 -28.5q0 -8 19 -14l163 14q10 -8 11 -20q0 -10 1 -21.5t15 -15.5l102 10q2 -10 -13 -28.5t-15 -26.5q0 -6 12 -16h33 q18 0 26 -6q-2 -12 -18 -24.5t-25 -16.5l-292 -101q-16 -10 -26.5 -23.5t-2.5 -27.5q14 -18 37 -18q10 0 20 10q8 14 29 14q12 0 19 -6t16 -12q16 -14 26 -13q8 2 14.5 16.5t18.5 8.5q8 -8 18.5 -37t26.5 -33q10 8 17.5 38t27.5 36q18 -4 57 5t50 9q33 0 49 -30 q10 -33 14 -69t4 -71q0 -55 -4 -100q-14 -158 -14 -172q0 -39 6 -82q0 -59 16 -145q25 -125 27 -146q-6 -20 -27 -4q-2 4 -23.5 45t-37.5 51q-10 -16 -10 -40q0 -12 4 -37t4 -35v-12q-4 -8 -4 -11q-10 2 -30.5 27t-33.5 25q-10 0 -20 -17q4 -37 -25 -53q-12 -2 -27.5 13.5 t-21.5 15.5q-12 -2 -34.5 -15.5t-35.5 -13.5q-4 25 -7 43t-15 31q-14 2 -34.5 -12.5t-31.5 -16.5q-39 0 -118.5 -8t-118.5 -8q-23 0 -49.5 1t-67.5 15q-106 72 -160 106q-96 63 -139 140q-86 96 -119 141q-57 78 -82 156q-4 10 -4 26zM494 764q0 -16 4 -25l98 -102 q29 -10 37 -10h20q57 0 95 30q4 37 4 54q0 61 -21.5 154t-23.5 118q2 10 -8.5 19.5t-18.5 7.5q-33 -23 -72 -66q-16 -18 -61 -78q-18 -25 -35.5 -51.5t-17.5 -50.5z" />
<glyph unicode="H" horiz-adv-x="1185" d="M12 178q23 207 27 266q12 145 12 269l-4 385q0 39 -5 103.5t-5 74.5q14 12 14 33q-2 29 -2 59q6 -2 16.5 -16.5t27 -23.5t42.5 -19q8 14 12.5 50t12.5 50q14 4 27.5 -9.5t22.5 -31.5q2 -27 4.5 -39t14.5 -20q14 20 27.5 38.5t36.5 41.5q8 16 13 28.5t13 16.5q23 0 35 -23 q4 -16 4 -27q-2 -23 -2 -34q0 -25 15 -39q8 14 20 14q23 -6 47 -10q14 16 24.5 56t14.5 48q16 -10 21.5 -30.5t5.5 -51.5q2 -14 2 -27.5v-27.5q0 -23 -2 -70t-2 -69q0 -41 2 -65.5t14 -53.5q10 -10 27 -10q8 0 26.5 5t24.5 5q10 12 14 32.5t4 43.5q0 16 -1 31.5t-1 31.5 q0 37 2 77t4 81q8 4 20.5 -5t18.5 -9t13 14q0 18 -1 34.5t-1 30.5q0 29 10 64q23 -12 40 -48t25 -54q14 -2 22.5 16t20.5 10q12 -6 21.5 -33.5t30.5 -21.5q10 8 16 40t25 38q14 -14 25 -22.5t26 -8.5q10 0 22 12q12 4 23.5 -6t23.5 -18q14 12 26.5 45t27.5 47 q18 -8 25 -19.5t8 -29.5q0 -16 -2.5 -36t-4.5 -38q0 -31 15 -45l43 31l12 -15q6 -63 8 -156.5t2 -105.5q0 -47 -2 -145.5t-2 -149.5q0 -18 -21.5 -45.5t-23.5 -39t-2 -30v-26.5q0 -51 20 -203q10 -76 11 -121q0 -37 -6 -73q-23 -14 -30 -37t-7 -53v-37q-18 -23 -35 -6 q-16 25 -25 34q-14 23 -37 11q-10 -8 -17 -12.5t-15 1.5q-12 10 -20.5 45t-26.5 45q-18 -18 -52 -20t-63 -4q-4 4 -8 24.5t-21 20.5q-16 -27 -24 -39q-16 -23 -33 -31q-10 0 -21.5 1t-13.5 16q16 23 16 51q0 18 -8 47q-18 66 -18 86q6 35 6 70q0 53 -16 102q-16 18 -43 18 q-33 -4 -50 -6q-25 -8 -32 -25.5t-7 -47.5q2 -33 3 -50q0 -10 -5 -26q-6 -59 -12 -99t-53 -53q-10 -20 -21 -41q-10 -2 -26.5 12.5t-30.5 4.5q-12 -16 -21.5 -25.5t-23.5 0.5q-14 16 -29 33q-10 6 -24.5 -8.5t-24.5 -5.5q-8 14 -53 43q-20 12 -29 30h-22q-12 -20 -46 -46.5 t-42 -49.5q-12 -12 -27 -12q-8 0 -29 8z" />
<glyph unicode="I" horiz-adv-x="583" d="M16 1352l7 18q25 -4 35 -41t30 -41q18 66 37 131q29 -6 41 -65.5t47 -59.5q6 0 23 4q14 20 24 66.5t14 56.5q33 4 50 -22q-1 -9 -1 -16q0 -31 13 -48q16 4 24.5 22.5t16.5 39t14 35t17 22.5q18 -2 27.5 -34t25.5 -36q6 2 18.5 24t30.5 17q8 -23 8 -53q0 -25 -8 -58.5 t-14 -64.5q-12 -61 -17.5 -138t-5.5 -163v-43q45 -133 65.5 -276.5t20.5 -296.5q-4 -29 -32.5 -45.5t-55.5 -30.5q-37 4 -74 10q-8 -43 -52 -60.5t-85 -31.5q-27 -4 -38 39t-25 43q-12 0 -33 -14q-2 -2 -15.5 -11.5t-23.5 -5.5q-16 8 -40 41t-46 33q0 43 2 130t2 130v25 q0 90 -12 180q10 109 10 197q0 104 -6 194q-12 133 -19 197z" />
<glyph unicode="J" horiz-adv-x="937" d="M4 664q0 16 6 28q16 14 37 15q18 0 54 -18.5t46 -20.5q145 -33 291 -66q10 10 11 27q0 8 -8.5 31.5t-4.5 37.5q0 180 -26 379q-16 123 -62 365l12 22q18 0 32 -13.5t20 -31.5q8 -10 8 -39.5t8 -42.5q14 -43 25.5 -65.5t29.5 -28.5l11 10q4 25 4 39q0 12 -2 39t-2 39 q0 31 6 45q10 2 18 -1t27 -13q12 -23 14 -80t23 -80q10 -2 16 6q4 12 6 17l14 77q12 0 33 -22.5t37 -11.5q12 25 21.5 42t29.5 13q11 -5 20 -5q21 0 34 25q4 33 10 48.5t22 29.5q16 0 34 -1t21 -19.5t3 -50t2 -50.5q0 -27 -2 -82t-2 -81q12 -45 16 -95.5t4 -107.5 q0 -70 -8 -172q-18 -231 -19 -283q-16 -23 -73 -147q-41 -92 -109 -129q-20 -23 -51 -30t-72 -7h-51q-33 -6 -69.5 -10.5t-71.5 -4.5q-90 0 -158.5 25t-120.5 86q-16 8 -34.5 18.5t-22.5 26.5q4 6 32.5 18.5t20.5 36.5q-14 16 -14 37q0 20 16 49q-18 14 -27.5 70.5 t-50.5 65.5q-14 16 -14 41z" />
<glyph unicode="K" horiz-adv-x="1155" d="M37 1047q0 23 39 34q4 12 6 26.5t2 27.5q0 27 -10.5 82t-10.5 86q0 18 3 28q0 23 -8.5 66t-8.5 65q0 12 4 33q16 4 23 4q16 0 29.5 -5t27.5 -19q12 -18 17.5 -55.5t9.5 -67.5q12 16 22.5 57t20.5 59q12 4 34.5 -2t26.5 -6q14 0 23 15q18 4 42.5 -28t32.5 -32q10 0 25 29 q4 37 25 45q33 4 47 4q35 0 57.5 -9t37.5 -38t20.5 -61.5t5.5 -79.5v-62q20 -14 22 -12q100 141 203 282q27 -3 37 -36q4 -16 4 -27q0 -10 -7.5 -39t-7.5 -41q0 -27 19 -39q29 14 61 15q43 0 72 -25q23 2 33 2q23 0 37 -14q-6 -25 -11 -47q0 -10 9 -19l16 12q18 12 31 13 q16 0 24 -15l4 -6q-31 -59 -108.5 -176t-108.5 -176v-51l199 -287q18 -29 27.5 -43t9.5 -27q0 -14 -15 -26q-27 -41 -38 -60q-25 -33 -56 -39q-4 -23 -45 -71q-23 -29 -26 -45q-14 4 -39 -10.5t-33 -14.5q-12 0 -29 19q-18 6 -38.5 -16.5t-37.5 -20.5q-66 102 -98 149 q-39 53 -72 84q-12 4 -20 -10t-11 -23.5t-5 -75t-43 -83.5q-10 8 -21 8q-10 0 -31.5 -23.5t-40.5 -17.5q-23 20 -59 20q-23 0 -51.5 -8t-42.5 -12q-55 4 -111 10q-61 10 -96 51q0 61 2 179t2 174v77v31v27v22q0 39 -2 80t-8 84q4 18 -19.5 53t-23.5 48z" />
<glyph unicode="L" horiz-adv-x="901" d="M2 1247q23 -6 36 17.5t25 46.5q2 39 5.5 64.5t33.5 31.5q10 4 24.5 9t23.5 5q14 0 26 -12q2 -4 25 -45q16 -29 18 -49q4 -4 10.5 -6t8.5 2q8 14 18 29.5t31 9.5q47 0 86 -29q12 -31 19 -42t22 -7q10 29 45 28q14 0 20 -2l10 -20l-16 -426q0 -25 2 -51.5t4 -50.5v-23 q-6 -27 -8 -39q18 -16 45 -16q18 0 51 9t43 9q111 18 221 39h25q20 0 25 -12q-6 -29 -48 -44.5t-51 -25.5q10 -14 27 -14q23 2 33 2q16 0 24 -10q-2 -20 -35.5 -38t-33.5 -28q0 -8 12 -20h31q47 0 53 -21q-33 -25 -114 -31t-107 -18q-2 -6 10 -23q33 -2 72 -4t63 -12 q2 -12 -13.5 -19.5t-38 -12.5t-49 -9t-44.5 -20q8 -20 46 -22.5t48 -10.5q-51 -47 -113.5 -78t-128.5 -31q-41 -8 -81 -12t-89 -4q-70 0 -118 8q-2 2 -12.5 24.5t-28.5 22.5t-53.5 -12t-53.5 -12q-20 0 -37 10v43q0 47 -3 68.5t-21 48.5q0 57 -8.5 173.5t-8.5 176.5 q0 66 5 106.5t22 94.5q0 47 -10 106q-25 141 -25 178z" />
<glyph unicode="M" horiz-adv-x="1736" d="M41 233q0 51 22 117q63 184 66 197q-6 16 -6 49q0 41 23.5 109.5t27.5 89.5q20 57 53 249q27 158 74 242q4 37 35 115q20 51 22 69q4 10 16.5 12.5t24.5 4.5l23 -45h2q20 0 59 -41q23 -23 37 -23q16 0 33 17q14 -8 36.5 6t39.5 6q109 -219 217 -438q8 -14 22 -15 q12 0 23 11q37 55 82 151q23 47 45 96q14 6 26 0q4 -23 6.5 -39t14.5 -22q18 2 31 25q2 4 12 31.5t12 94t31 95.5q0 23 1 46t15 36q18 2 40 -10.5t32 -12.5q14 -18 26.5 -29.5t26.5 -11.5q12 0 21.5 9.5t22 19.5t26.5 0q4 -4 16.5 -23.5t24.5 -21.5q35 6 51 6q12 0 25 -6 q39 -43 56 -146.5t24 -122.5l61 -268q35 -66 59 -151q18 -66 37 -160q-10 -12 -25.5 -2t-17.5 10q-20 16 -32.5 58t-18.5 51q-39 88 -78 178q-4 0 -10 -9.5t0 -17.5q8 -18 11 -48t7 -58q72 -182 90 -228q37 -88 101 -225q0 -8 -17.5 -27.5t-9.5 -37.5q-22 26 -62 26h-3h-45 q-8 -18 -52 -22q-39 -4 -39 -34q0 -3 1 -7q-20 0 -48 6t-55 12l-151 156l-80 164q-10 2 -14.5 2t-6.5 2q-18 -25 -63 -111q-66 -123 -140 -166q-4 -14 12.5 -39.5t10.5 -38.5q-72 41 -150 115q-115 117 -229 236q-18 0 -27.5 -12.5t-15.5 -34.5q-12 -47 -37 -109 q-39 -96 -43 -107q-29 -35 -59 -40q-10 8 -15.5 48t-35.5 33q-63 -70 -125 -139q-18 0 -26.5 18.5t-14.5 36.5q6 29 4 35q-12 12 -31 13q-16 0 -63 -37q-23 -18 -35 -19q-23 0 -37 51z" />
<glyph unicode="N" horiz-adv-x="1439" d="M23 1374q0 18 6 41q6 12 16 12q8 0 20.5 -10t16.5 -10q37 10 76 20q43 16 53 56q14 -6 24.5 -39t26.5 -43h37q35 0 58.5 9t31.5 38q7 1 14 1q27 0 46 -19q33 -49 65 -97l371 -364q61 12 66 79.5t10 131.5q0 16 9 45.5t9 40.5q0 16 -10 32q-16 -12 -21.5 -50t-11.5 -52 q-16 25 -16 68q0 20 5 51t11 59q12 8 16 8q10 -18 23 -34q6 4 20.5 33.5t38.5 19.5q20 -14 35 -6q4 4 18.5 26.5t32.5 22.5q10 -8 10 -27q0 -39 13 -49q10 2 19 14.5t20 26.5q27 16 48 25.5t48 9.5q23 0 47 -12q8 0 33 28q12 14 24 15q12 0 23 -9q6 -25 12 -57.5t6 -60.5 q-8 -39 -12 -110t-4 -122v-78q0 -68 -11.5 -227.5t-11.5 -208.5t2.5 -88t10.5 -82q8 -29 12 -90t6 -82q-8 -25 -26 -24q-33 14 -46 14q-14 0 -20 -27q-10 -4 -40 -7t-42 -11q-18 -6 -46 10t-34 16q-12 0 -24 -14l-74 62q-35 0 -31 -23t-16 -43q-51 6 -111 61q-88 82 -98 88 q-53 55 -109.5 112.5t-111.5 94.5q-16 4 -23.5 -6t-10.5 -26.5t-3 -34v-25.5q0 -72 -4 -103.5t-29 -60.5q-10 -4 -31.5 5.5t-25.5 9.5q-14 0 -15 -27q0 -51 -75 -94q-45 -25 -58 -51q-23 0 -39 14q-29 27 -57 53q-20 10 -53 10q-18 0 -41 -2t-25 -2q-12 0 -33 4l-20 58 q0 76 7 226.5t7 199.5v22q0 39 -2 81t-8 81q-8 31 -10 58.5t-2 64.5q0 25 2 74t2 73v37q-4 25 -4 37q0 23 -6 66t-6 63z" />
<glyph unicode="O" horiz-adv-x="1292" d="M-27 803q18 162 58 268q51 135 150.5 228.5t215.5 142.5q18 4 36 -17.5t28 -23.5q31 8 88 31q98 38 150 38h3q16 0 27 -2l37 -30q111 -18 203 -62.5t172 -124.5q23 -31 33 -47q18 -31 12 -59q82 -262 82 -543q-20 -86 -41 -170q-31 -96 -92 -151q-16 -4 -29 -5 q-33 4 -49 5q-6 0 -23 -5q-117 -41 -233.5 -65.5t-231.5 -24.5q-20 6 -39.5 19.5t-42.5 36.5q-78 0 -151 39q-53 29 -129 92q-51 33 -105 92l-88 110q-22 30 -22 78l2 70q0 25 -4 44t-17 36zM412 791q41 -51 59 -70q39 -41 74 -57q7 1 18 1q19 -1 51 -3q50 -4 52 -3 q35 0 58.5 7.5t41.5 27.5q39 96 43 109q12 39 12 71q0 41 -20 76l-90 84q-53 0 -115 -16q-76 -25 -111 -35q-47 -20 -61 -84q-8 -76 -12 -108zM1051 395q10 -10 23 -12t34 0q14 4 17 20.5t10 22.5l20 94q0 17 -8 31l-10 -8z" />
<glyph unicode="P" horiz-adv-x="1079" d="M4 1427l2 54q37 2 76 4q25 -18 41 -74q10 -35 20 -51q14 14 15 37q-4 31 -4 47t6 24q6 -4 20.5 -26.5t32.5 -22.5q14 16 14 51q0 43 6 54q14 -8 28 -36t24 -38q10 2 30.5 -3t26.5 -5q14 0 23 10q0 20 1 32.5t15 16.5q14 2 27.5 -8t27.5 -20q139 0 273 -41q12 -8 8 -27 q33 -23 117 -68q129 -70 180 -135q2 -14 24 -127q16 -84 17 -131q0 -41 -8.5 -75.5t-28.5 -69.5q-23 -16 -45 -92q-10 -37 -33 -56q-43 -61 -129 -100q-231 -104 -240 -113q0 -35 9 -88q18 -119 18 -147q-6 -2 -16.5 -11.5t-18.5 -7.5q-10 16 -22.5 34t-30.5 18q-8 0 -21 -7 q-8 -6 -22 3.5t-21 7.5q-8 -6 -20 -36t-37 -22q-12 20 -26.5 44t-38.5 34q-12 -2 -31 -27.5t-41 -15.5q-16 31 -27 33q-18 0 -48 -26.5t-54 -18.5q-2 4 -2 33q0 16 -15 24q-20 4 -35 -23.5t-32 -25.5q14 84 31 168q16 102 16 176q-14 49 -18.5 120t-6.5 136q0 33 -11 103.5 t-11 91.5q0 37 10 65q-23 176 -45 354zM518 997q0 -25 7 -72.5t7 -66.5q8 -8 19 -8q10 0 28.5 11t24.5 13q20 12 43 27q43 29 43 60q0 6 -2 12l-108 84q-20 10 -33 10q-14 0 -21.5 -18.5t-7.5 -51.5z" />
<glyph unicode="Q" horiz-adv-x="1402" d="M18 766q0 47 31 86l-14 63q53 156 92 234q63 123 154 201q6 -1 12 -1q27 0 55 21q45 35 64 37q131 78 293 78l43 -27q184 0 323 -69q160 -80 225 -238q-2 -16 -2 -23q0 -51 41 -139t41 -145q2 -8 2 -27q0 -27 -10 -53q-16 -35 -22 -51q-45 -39 -60 -56q-31 -31 -45 -63 q10 -43 45 -105q45 -80 54.5 -106.5t35.5 -81.5q20 -41 25 -51q-23 -16 -49 -17q-29 0 -74 29q-53 35 -76 39q-8 -16 8.5 -39.5t10.5 -38.5q-23 -4 -39 4q-39 27 -58 37q-8 -6 -3 -26.5t5 -24.5q0 -6 -6 -8t-26 6q-47 41 -70 59q-38 30 -71 30q-6 0 -11 -1 q-72 -20 -153.5 -34.5t-155.5 -14.5q-133 0 -235.5 42t-176.5 107q-86 78 -108 164q-66 106 -74 123q-20 43 -21 80zM473 821q0 -25 25 -55q35 -45 45 -56.5t29.5 -19.5t54.5 -8q14 0 64 7t75 7q37 27 78 76q29 35 69 88l2 35q-16 41 -43 80q-16 25 -57 72 q-35 0 -102.5 22.5t-106.5 22.5q-41 -43 -71.5 -114t-57.5 -136q-4 -16 -4 -21z" />
<glyph unicode="R" horiz-adv-x="1042" d="M31 1278q0 55 16 98q0 18 -3 48t-3 32q0 16 2 27q20 27 49 26q16 0 39 -10q53 -24 71 -24h1q8 2 26.5 18t34.5 8q18 -25 39 -47q4 -1 8 -1q29 0 56 24q0 33 7 42t25 9q16 25 52 24q10 0 17 -1t24 -7l184 -110q92 -72 184 -142q59 -47 103.5 -105.5t54.5 -117.5 q-27 -25 -44.5 -87t-31.5 -85l-131 -162q0 -47 25 -96q0 -2 53 -88l117 -195l8 -49q-27 -8 -62 -8q-27 0 -52.5 5t-57.5 18q-16 -2 -22.5 -32t-31.5 -30q-47 12 -92 25q-18 0 -34 -9q-8 -8 -13 -14q-16 -16 -26 -20q-37 29 -72 90q-45 78 -62 96q-25 -2 -24 -35v-33 q0 -20 -4 -24t-8 -27.5t-25 -9.5q-4 4 -4 13.5v15.5q0 16 -10 22q-10 -10 -29 -10q-14 0 -35 4q-18 -6 -48 -48t-48 -42q-14 0 -33 18q-4 2 -33 33q-20 20 -34 21l-17 -4l-76 -37l-8 14q-8 63 -8 143q0 59 3 151.5t3 94.5q-8 35 -8 82q0 29 4 95.5t4 74.5v53q-6 25 -8 35 q4 37 4 53q0 33 -8 98.5t-8 98.5zM442 1063q0 -35 2 -70t5 -67l8 -13q12 2 26 7q8 8 47 36q55 41 56 80q-27 43 -58 68q-36 31 -77 39q-8 -33 -9 -80z" />
<glyph unicode="S" horiz-adv-x="960" d="M-4 440v9q117 53 233 106q131 76 166 190v7q0 32 -30 71q-41 49 -43 74l-52 41l-28 184q121 223 137 246q47 70 113 131h8q2 -18 4 -31.5t18 -17.5q-8 -20 -14 -33.5t-8 -25.5q25 0 66.5 39.5t64.5 39.5q25 0 49 -26q12 10 35 10q31 -4 43 -4q20 0 30 10q8 -2 33 -15 t41 -3q4 -10 0 -20.5t-24 -45.5q-16 -16 -23 -22q-14 -14 -16 -29q4 -1 9 -1q25 0 69 17q33 12 45 13q6 0 22 -4q-18 -53 -76 -68q-4 -6 -82 -61q-49 -35 -49 -82q20 -129 23 -140q23 -74 80 -116q22 -86 22 -175v-8q0 -102 -28 -180q-70 -123 -166 -241q-37 -33 -86 -33 q-20 0 -37 6q16 31 33 61q0 12 -15 21q-14 12 -43 12q-23 0 -67.5 -14.5t-63.5 -14.5q-23 0 -36 16.5t-13 59.5q-16 12 -35 13q-18 0 -47 -10.5t-35 -11.5t-22 -1q-25 0 -49 10q2 8 20 19.5t14 23.5l-12 8q-20 0 -61 -10t-62 -10q-31 0 -55 16z" />
<glyph unicode="T" horiz-adv-x="1085" d="M-8 1061q-6 18 14.5 29.5t24.5 15.5q-4 31 -4 45q0 37 32 37q39 10 43 20q-10 20 -52 28.5t-54 27.5q-8 18 15.5 37.5t23.5 29.5q0 12 -5 18.5t-7.5 13.5t-2.5 11q0 12 11.5 39t11.5 39l16 10l594 -8h33h31q86 0 124 3t93 13q37 -4 60.5 -5t39.5 -13q-10 -25 -20 -47 q0 -10 14 -16l27 -5q2 -14 -8.5 -29.5t-29 -25.5t-38.5 -20q0 -18 28.5 -20.5t28.5 -10.5q0 -4 -10 -21q-23 -35 -92.5 -40t-87.5 -15q-2 -6 4 -14t18 -8q55 0 118 -10.5t122 -20.5q6 -6 0 -27q-20 -14 -43 -19t-59 -5h-62q-39 0 -57 -4q-10 -6 -13.5 -14.5t7.5 -12.5 q8 -8 37.5 -15.5t37.5 -21.5q-20 -20 -45.5 -27.5t-62.5 -7.5q-20 0 -72.5 4.5t-54.5 4.5q-20 -31 -22.5 -104t-6.5 -87q4 -33 6 -75t2 -83q0 -37 -2 -112.5t-2 -116.5q0 -16 2 -54t2 -57q0 -20 -22.5 -25t-26.5 -11q-29 -49 -43 -73t-39 -44q-23 8 -35 31.5t-22 60.5 q-33 41 -67.5 63.5t-75.5 22.5q-12 -4 -25 -8q-31 -12 -45 -8q-23 25 -29 34q-14 23 -8 41l10 316q0 57 -6 116q-18 176 -18 195l-12 10q-29 0 -78 -5t-60 -5q-35 0 -60.5 7t-45.5 28z" />
<glyph unicode="U" horiz-adv-x="1214" d="M14 590q0 39 8.5 123t8.5 127v26q0 14 -4 43q6 59 6 113q0 49 -6.5 149.5t-6.5 149.5v52.5t9 72.5q10 10 24 10q8 0 24.5 -6t24.5 -6q14 0 27 12q16 -29 37 -125q12 -51 24 -80q14 14 22.5 55.5t10.5 45.5q12 43 26.5 90t43.5 78l20 -2v-58q0 -70 3 -103.5t20 -72.5 q25 31 35 115t30 117q20 12 29.5 16t22.5 0l8 -10q-4 -33 -4 -49q-6 -68 -6 -89q0 -31 2 -45l12 -8l84 64q6 -12 -1 -39t-5 -37q0 -72 -27 -361q-12 -133 -12 -217q25 -23 68.5 -32t84.5 -17q31 4 39.5 24.5t8.5 47.5q0 25 -12.5 76t-12.5 78q0 51 -6 159.5t-6 163.5 t3 102.5t23 112.5q6 16 23.5 18.5t25.5 0.5q4 -18 8.5 -75t18.5 -83q12 0 18.5 16.5t12.5 36.5q0 49 12 81t47 52q37 -8 86 -33q0 -59 3 -85.5t22 -61.5q20 2 20 31q0 39 6 45q8 76 13 92q14 49 49 72q4 -12 10 -61.5t18 -69.5q12 -4 40 0t36 4q31 0 43 -21l-18 -354 q0 -53 -6 -157.5t-6 -158.5l4 -446q-43 -23 -43 -76q0 -12 5 -34.5t3 -26.5q-6 -8 -15.5 -4t-21.5 10q-6 20 -25.5 42.5t-38.5 43.5q-8 -2 -10 -16.5t-8 -18.5q-31 0 -72 64q-20 33 -47 36q-8 -25 -12 -66.5t-4 -76.5v-49q-18 -6 -21 -2q-6 6 -12 26.5t-18 26.5 q-12 4 -27.5 -2t-19.5 -29q0 -35 -13 -45q-25 0 -36 27t-15 31q-10 25 -16 84t-19 86q-41 0 -82 -25q-121 -72 -127 -74q-113 0 -204 28t-170 93q-55 45 -76 102.5t-21 135.5z" />
<glyph unicode="V" horiz-adv-x="1462" d="M35 1368q-10 14 1 27.5t27 15.5q18 -8 39 -46t39 -38q12 0 27 8q18 4 34.5 43t49.5 27q8 6 8 22q-2 16 -2 27q0 18 16 25q6 -8 13.5 -14.5t15.5 -6.5q10 0 30.5 14.5t28.5 14.5q16 0 27 -35q8 -10 21.5 -12t27.5 -4q12 -10 28.5 -42t35.5 -36q4 8 4 24t-9.5 47t-11.5 41 q-12 23 -19 39.5t-7 34.5q0 12 6 25q31 -29 59 -76q39 -73 80 -145q63 -180 127 -361q14 -2 20.5 6t12.5 25q90 266 182 534q16 10 21 11q0 -25 33.5 -46.5t23.5 -52.5q10 -16 27 -8q27 43 36 62q19 29 47 29q6 0 11 -1q10 -6 10 -20q0 -6 -2 -14.5t-4 -15.5t-2 -13 q18 -16 45 18q16 23 31 25q6 4 16 6t21 4q4 -23 -11.5 -60.5t-15.5 -52.5q0 -14 6 -26q25 6 46.5 43t33.5 45t29.5 18t35.5 13q4 -10 -3 -28t-7 -24q0 -12 21 -20q43 0 61 -27q-10 -51 -53 -131q-33 -63 -39 -76l-162 -370l-117 -310l-90 -278v-31q0 -29 -14 -43 q-12 -4 -23 -4q-23 0 -22 21q2 6 2 22q0 18 -10 21q-31 -6 -33 -7q-18 0 -27 21q-4 14 1 44t5 38q0 16 -6 26q-25 -18 -36 -57t-11 -80q-18 -18 -35 -4q-10 6 -17 33t-30 27q-8 -20 -41.5 -26.5t-38.5 -27.5q-12 -4 -28.5 6.5t-22.5 10.5q-14 -23 -21 -34t-16 -11 q-8 0 -18 6q-33 4 -54.5 6t-25.5 27q-14 68 -47 145q-33 70 -64 139q-47 182 -149 428q-90 209 -178 420z" />
<glyph unicode="W" horiz-adv-x="1798" d="M-23 1358q0 33 11 53q14 4 24.5 -10.5t16.5 -16.5l39 2q8 -10 77 -163q25 -53 58 -93q12 4 12 21q0 8 -6 26.5t-6 28.5q-16 55 -23 82q-14 53 -14 86q0 12 4 37q10 23 37 10q16 -33 33 -39q12 -4 23 -1t24 8q4 -4 22 -54q12 -35 37 -35q16 27 23 37q14 23 32 27 q12 -35 19.5 -51.5t21.5 -26.5q12 -2 23.5 7.5t23.5 19.5q23 -35 43.5 -116t34.5 -110q16 -2 23.5 12.5t15.5 28.5q14 45 49 97q84 121 97 159q20 29 30 43q20 29 45 31q14 6 35 -9t35 -5q8 4 47 43q21 21 43 21q8 0 17 -3q74 -80 135 -194q37 -68 96 -211q4 0 11 -7.5 t14 -5.5q20 29 34.5 94.5t18.5 80.5q20 100 33 149q23 88 84 121q8 -6 16 -10l-10 -138q12 -12 22 -12q12 0 35 19.5t31 21.5q8 -2 22.5 6t24.5 4q8 -6 8 -20q0 -8 -4 -22.5t-4 -20.5q0 -18 28 -17q20 14 40 69.5t57 64.5q4 -6 4 -21q-2 -16 -2 -24q0 -23 18 -29q6 4 39 37 q25 25 41 24q10 0 27 -12q12 -4 16 -18l-6 -37l-129 -320l-55 -147l-115 -309l-90 -394q-8 -8 -12 -30q-10 -43 -31 -54q-25 -2 -37 -2q-33 0 -43 27q0 29 -27 53l-49 35q-29 -2 -41 -2q-18 0 -35 10q-49 78 -120 211q-59 109 -117 217q-16 27 -37 6l-31 -47l-188 -383 q-12 -8 -21.5 -14t-19.5 2q-8 6 -8 20q4 27 4 37q0 14 -21 13q-8 -37 -59 -68t-59 -65q-18 10 -51 -8.5t-38 -18.5q-18 0 -28 31q0 25 -21 51q-31 39 -32 45q-82 213 -175 483q-82 244 -159 488q-4 23 -7.5 49t-3.5 45z" />
<glyph unicode="X" horiz-adv-x="1327" d="M-45 1335q18 -2 38.5 -7t37.5 -11q31 -27 45 -39q29 -25 51 -25q4 18 12 29.5t25 1.5q12 -8 25.5 -17.5t25.5 -4.5q4 8 -1 27.5t-5 25.5q0 14 16 22q14 0 37 -15t31 -15q10 0 18 8q-6 31 -6 45q0 12 10 20q16 -2 27 17q25 43 31 43q12 0 26 -13q14 -16 32 -30.5t36 -10.5 q8 4 10 21.5t15 24.5l18 -7q76 -100 154 -200l16 4q33 29 98 125q103 153 198 153h1q20 0 49 -6l10 -14q2 -4 -7 -17.5t-9 -17.5q0 -8 14 -10q4 23 25.5 33t44.5 20h22q16 0 19 -10q0 -8 -9.5 -31.5t-2.5 -38.5q6 -6 22 -18.5t19 -22.5q-23 -37 -44.5 -77t-29.5 -74 q18 -10 33.5 7t31.5 36q18 14 41 31.5t45 17.5q10 0 27 -6q31 -23 45 -33q29 -23 18 -45q-170 -188 -337 -375l6 -35l229 -268q6 -12 12 -25.5t4 -27.5q-18 -10 -29.5 -18.5t-11.5 -20.5q0 -10 7.5 -21.5t7.5 -25.5q0 -16 -7.5 -30.5t-21.5 -35.5q-16 -12 -43 -12 q-18 0 -40.5 7t-43.5 15q-10 -8 -10 -24q0 -2 4 -18.5t2 -22.5q-20 2 -46 -16.5t-36 -18.5t-24 10q-25 0 -54 43q-16 27 -35 31q-10 -10 -10 -18q0 -6 9.5 -28t0.5 -34q-12 -8 -21 -13t-17 -5l-166 217q-6 10 -23 10q-12 0 -20 -8l-215 -260q-8 23 -23 35q-20 18 -47 12 q-20 6 -29 8q-29 8 -47 8q-23 0 -39 -8q-18 12 -18 39q0 8 4 20q8 10 12 16.5t2 14.5q-12 6 -20 6q-16 0 -50 -32q-26 -24 -48 -23q-7 0 -13 2l-20 4q4 8 4 23q0 16 -12.5 44.5t-12.5 43.5q0 12 11 28l188 277q24 35 50 73q22 32 23 62q0 5 -1 10q-72 119 -215 281 q-74 80 -146 160q-10 10 -10 28z" />
<glyph unicode="Y" horiz-adv-x="1196" d="M12 1210q0 12 25 21q10 2 21.5 -13.5t23.5 -0.5q0 14 -15.5 38.5t-15.5 32.5q0 18 24.5 28.5t51.5 35t33 49.5q14 0 43 -27q16 -14 24 -14t17 8q0 10 -4 21q-10 29 -11 32q0 12 13 23q16 2 42.5 -18.5t45.5 -12.5q12 23 21 38t30 9q45 -4 82 -63q16 -29 33 -58 q31 -53 47 -77q29 -43 59 -66q29 4 47.5 30.5t36.5 53.5l125 207q23 27 39 18q8 0 11 -14t9 -16q12 -6 39 0t37 6q25 0 33 -27q20 6 34.5 26.5t28.5 41.5q12 2 34 11t30 9q19 0 31 -20h47q8 -18 8 -39q-6 -51 -10 -101q-16 -33 -22.5 -120.5t-31.5 -122.5 q-63 -117 -153 -338q-109 -266 -144 -342q-16 -53 -32.5 -107.5t-42.5 -93.5q-20 0 -37 26.5t-37 20.5q-27 -49 -41 -72q-24 -39 -60 -39q-4 0 -8 1q2 31 2 47q0 27 -5 42t-23 27q-35 -14 -68 -26q-10 25 -49 38t-51 27q-45 -16 -75 -25.5t-58 -25.5q-6 18 -6 37q0 35 30 76 q43 59 49 71l109 189l-8 37l-238 241l-164 195q8 8 9 20q0 8 -4 19q-10 25 -11 26z" />
<glyph unicode="Z" horiz-adv-x="1333" d="M-59 907q-2 12 11 39t13 37q0 16 -22 29v12q20 23 57 43q88 53 100 63q0 6 -11 19.5t-1 21.5q94 31 191 64q2 4 -3.5 7t-16.5 6t-21 3q-18 0 -57.5 -7t-51.5 -7q-31 0 -55 16q4 11 44 29q33 15 33 39q0 5 -1 10q-18 18 -7 35q6 4 33 7t27 26q-37 20 -53 31q-31 20 -21 53 l23 6l391 -23l288 -8h347q29 -14 57 -26q12 0 23.5 13t25.5 28.5t29 19.5q20 4 35 -18q4 -7 12 -23l-14 -43q-70 -78 -142 -172q-16 -20 -217 -301q-12 -25 -88 -133q-57 -82 -70 -144q18 -12 38 -15t38 -3t53 4t54 4q37 0 128 4t97 4h37q25 -4 37 -4q-4 -14 -19.5 -20 t-29.5 -12q-98 -25 -195 -48q29 -12 96.5 -16t96.5 -18l2 -13q-82 -25 -164 -47q25 -12 92 -20t100 -27q2 -10 -8 -16t-69.5 -11.5t-168.5 -13.5q-14 -8 -4 -18q27 -10 70 -11h46.5t45.5 -6q6 -4 15.5 -10t13.5 -12q-4 -23 -47 -45.5t-43 -40.5q0 -8 10 -29q-20 -16 -55 -16 q-16 0 -49 6t-50 6q-23 0 -41 -8q-20 0 -68 -2t-73 -2q-39 0 -72.5 4t-62.5 16q-35 4 -82 6t-92 2q-61 0 -197.5 -4t-140.5 -4q-8 10 -59.5 28.5t-51.5 47.5l4 18q113 164 228 330q84 184 170 369q6 12 1 25.5t-18 17.5q-125 -18 -256 -62q-41 -14 -245 -90z" />
<glyph unicode="[" d="M33 1386q0 23 17.5 31t43.5 8h43q27 4 37 25q6 4 13.5 4h9.5q29 0 61 -43q21 -29 31 -35q16 6 36.5 38t43.5 32q8 -14 12 -23.5t14 -13.5q14 6 41 22.5t43 16.5t25 -4q23 -29 47 -55l190 20q25 -14 19 -27q-23 -10 -42.5 -22t-25.5 -31q2 -2 21.5 -12t21.5 -23 q-2 -4 -41 -22q-25 -12 -22 -37q20 -14 84 -27q29 -6 55 -16l2 -10q-8 -6 -42 -12.5t-46 -22.5q8 -20 8 -37q0 -23 -22 -27q-16 -6 -89 -13t-98 -40q-14 -119 -27.5 -248t-13.5 -229l13 -14h143q76 -4 135 -25q-6 -25 -46 -31t-51 -9t-22 -15q14 -25 62.5 -34t60.5 -17 q2 -6 -18 -27q-6 -4 -49 -7t-43 -36q14 -14 28 -27q-8 -14 -24.5 -20t-32.5 -6q-35 2 -53 2q-29 0 -49 -15q-18 -27 24 -36q45 0 67.5 -6.5t35.5 -36.5l-11 -7q-80 0 -239.5 -2t-243.5 -2q-37 8 -53 13q-33 10 -41 36q-6 12 0 26.5t12 29.5l2 381q-6 33 -8 85t-2 99v59 q0 59 -3 96t-11 76q2 12 2 39q0 41 -5 74q-14 113 -14 123q0 8 -8 34.5t-8 32.5z" />
<glyph unicode="\" horiz-adv-x="1095" d="M29 1362q10 -53 67 -135q29 -41 58 -80q193 -356 325 -746q27 -53 39 -79q25 -49 57 -70q14 -29 25.5 -47.5t32.5 -28.5q33 0 67 33q47 45 60 51q23 -20 47 -39.5t55 -23.5q6 10 6 22q0 10 -5 32.5t-5 27.5q0 18 23 26q20 -6 33.5 17.5t29.5 19.5q29 -37 62.5 -61.5 t80.5 -44.5q-23 61 -43 124q41 8 41 41q0 10 -12 23l-194 356q-82 150 -148 326q-55 150 -108 344q-6 10 -17 10q-6 0 -26 -10q-16 -23 -33 -45q-23 -25 -51 -21q-25 35 -35 52q-25 35 -29 53q-10 12 -29 12q-18 0 -32 -14q-4 -8 -4 -25q0 -14 8 -40.5t6 -39.5l-10 2 q-20 16 -49 50q-53 61 -93 61q8 -33 9 -49q0 -14 -11 -23q-12 -2 -24 11q-18 18 -25.5 17t-32 4t-28.5 5q-18 0 -27 -16q4 -14 17.5 -52t13.5 -61q-14 -8 -55 21q-23 16 -37 10z" />
<glyph unicode="]" horiz-adv-x="937" d="M51 1200q12 4 60.5 8t68.5 21l4 33q92 8 169 16t130 18q2 4 6.5 8.5t4.5 6.5q-14 12 -45 12q-29 -2 -56 -2q-96 10 -143 16q-84 14 -123 62l424 4q51 8 119.5 13t132.5 11q49 1 59 -24q6 -55 12.5 -88t36.5 -53q4 -16 4 -50q0 -27 -8 -89t-8 -81l-31 -473 q-10 -16 -10 -37q0 -12 8 -44.5t8 -43.5q0 -27 -24 -45q-4 -18 -8 -89.5t-17 -108.5l-41 -19q-80 0 -238.5 -2t-230.5 -2q-29 8 -41 14.5t-18 18.5q31 14 35 27q-6 14 -36 18t-65 8q-33 -2 -45 2t-24 21q0 16 12 24q23 10 45 23q27 10 44.5 16t27.5 23q-45 20 -90 43 q0 53 -29 59l-18 6q33 33 93 45.5t104 20.5t66.5 12t35.5 25q-12 57 -17.5 117.5t-5.5 140.5q0 70 2 139.5t4 138.5l-20 15h-41q-104 0 -147.5 3t-114.5 21q-35 23 -21 41z" />
<glyph unicode="a" horiz-adv-x="1495" d="M27 152q0 29 22 61q35 47 70 96q51 18 76 84q35 92 47 109q16 82 32 166q102 246 170 524q51 131 140 258q10 2 30.5 -4t30.5 -6q10 6 24.5 28.5t32.5 14.5q6 -6 12.5 -27.5t22.5 -25.5q16 4 37 38.5t35 34.5q15 1 31 -22q-4 -10 -8.5 -28.5t-2.5 -35.5q12 -12 36 -15 t44 -5q10 20 29 20q8 0 26.5 -8t28.5 -8q16 0 27 18q8 8 22 8q12 0 23 -6q31 -20 51 -59q12 -25 44 -134.5t77 -307.5q29 -125 70 -322q31 -94 55 -162q92 -252 98 -270q0 -29 -14 -33q-7 -2 -14 -2q-24 1 -55 25q-40 32 -52 32q-23 0 -43 -34q-20 2 -35.5 32.5t-34.5 32.5 q-10 -8 -10 -18q0 -6 3.5 -19.5t-3.5 -23.5q-27 -8 -53 -15q-10 0 -22.5 7.5t-33 41t-44.5 37.5q-10 -6 -11 -24q4 -27 4 -37q0 -6 -5 -9t-17 3q-23 29 -42.5 107.5t-51.5 109.5q-162 0 -299 -14q-10 -10 -52 -129q-18 -49 -49 -74q-12 -12 -32 -12q-29 6 -43 6t-31 -13 q-10 -2 -21.5 10.5t-13.5 14.5q-90 -35 -143 -94l-15 -2q4 39 4 57q0 14 -6 25q-23 -6 -30 -7q-8 0 -15 11q-2 10 6.5 27.5t8.5 23.5q0 10 -11 18q-18 -6 -37 -26q-43 -45 -57 -51zM744.5 764.5q5.5 -16.5 17.5 -23.5q14 2 41.5 0t32.5 -2q37 0 55 17q-4 39 -10.5 68.5 t-22.5 64.5q-8 25 -14.5 41t-26.5 20q-16 -18 -31 -55q-20 -51 -41 -102q-6 -12 -0.5 -28.5z" />
<glyph unicode="b" horiz-adv-x="1085" d="M-23 1313q18 6 29.5 12t18.5 18l2 60q16 0 35.5 6t39.5 12q33 -20 66 -39q10 0 20 13q12 -8 21.5 -14.5t19.5 -0.5q10 4 11 21q0 23 4 29q16 0 30 -9q47 -25 58 -26q12 -12 20 -17.5t19 2.5q10 8 14 35t23 33q14 0 25.5 -13.5t21.5 -25.5l319 -8q18 -2 21.5 -25.5 t11.5 -32.5q61 -23 111 -81q72 -92 143 -183q2 -8 2 -24q0 -27 -16 -58q-29 -45 -56 -90l-119 -141q-2 -27 15 -49q31 -37 61 -72q68 -86 68 -194q-20 -80 -71.5 -150t-127.5 -115q-27 -10 -59 -10q-25 0 -41 2q-63 8 -74 8h-33q-16 -6 -22 -8q-31 0 -90.5 8.5t-89.5 8.5 q-20 0 -31 -2q-12 10 -15 12q-18 18 -30 18q-8 0 -15 -4q-18 -12 -38.5 -24.5t-38.5 -10.5q-12 20 -19 31q-12 20 -31 16q-27 -41 -30 -47q-20 -25 -49 -32q-16 4 -25 4q-27 -2 -39 -2q-33 0 -45 20q10 41 14 102.5t4 120.5v119q0 80 5.5 141.5t21.5 118.5q2 8 2 23 q0 27 -8 55q-14 47 -15 65.5t-3.5 77t-2.5 107.5v151q-2 10 -26.5 24.5t-16.5 33.5zM451 1073q0 -20 2 -31q6 -12 8 -18t2 -27v-32q4 -16 20 -21q31 25 45 45q18 25 18 49q0 6 -1 13q-14 25 -34.5 43t-45.5 18q-14 -12 -14 -39zM453 561q0 -37 5 -60.5t19 -41.5 q31 6 51.5 18t28.5 37q2 9 2 17q-1 25 -23 51q-30 34 -59 67q-12 -2 -22 -4q0 -27 -1 -47t-1 -37z" />
<glyph unicode="c" horiz-adv-x="1085" d="M16 688q0 47 18.5 123t20.5 82q41 82 62 121q39 74 80 114q12 6 65 56q41 37 74 37q86 74 166 121t176 75q-16 -6 -31.5 -18.5t-17.5 -28.5l10 -8q45 14 97 32.5t87 26.5l2 -10q-51 -37 -100 -74q16 -8 37 -8q12 0 38.5 4t37.5 4q-6 -14 -42 -34.5t-36 -45.5q12 -4 35 -4 q18 0 57 8.5t61 8.5q2 -4 2 -31q0 -8 11 -14h51q-6 -23 -44 -33t-48 -31q0 -14 17.5 -19t21.5 -9q2 -6 -7.5 -20.5t3.5 -22.5q14 -8 30 -9q31 4 47 4t29 -6q-4 -8 -26.5 -17t-22.5 -28q10 -10 50 -14t48 -16q-20 -16 -68.5 -18.5t-71 -11.5t-130.5 -28q-154 -27 -197 -123 q-23 -18 -33 -30q-16 -20 -16 -41q0 -10 6 -23q63 -100 195 -147q31 -10 237 -60q-10 -14 -22 -21t-4 -20q16 -14 40.5 -22t49.5 -15q-31 -4 -52.5 -6t-33.5 -18q8 -18 -12.5 -33.5t-18.5 -30.5q-16 -6 -31 -6q-16 0 -33.5 2t-33.5 4q-29 0 -45 -16q16 -29 54 -43t73 -27 q4 -12 -8 -22q-4 -2 -23 -12q-59 -12 -90 -19.5t-49 -21.5l45 -60l-10 -10q-68 0 -136 25q-23 8 -200 102q-20 10 -66 43q-72 51 -117 57q-51 37 -100 88q-16 18 -145 174q-12 37 -13 74z" />
<glyph unicode="d" horiz-adv-x="1339" d="M27 1333q8 8 37.5 10.5t37.5 18.5q49 8 113 8q35 0 119 -4t88 -4q16 18 62 25.5t53 9.5h50t52 2q115 0 168 -20.5t92 -61.5q23 2 41 -31q10 -20 18 -26q102 -102 207 -203q98 -129 152 -271q0 -14 -21.5 -22t-25.5 -21q6 -31 6 -61q0 -96 -72 -199q-49 -70 -149 -166 q-53 -39 -107 -77q-66 -41 -127 -41q-10 0 -39 4q-45 -16 -125 -29q-211 -35 -219 -37q-31 0 -60.5 -1t-60.5 -1q-86 0 -148.5 16.5t-107.5 69.5q8 25 51.5 34t53.5 21q-10 12 -33 21q-51 16 -57 31q33 8 56.5 14t29.5 25q-39 0 -60.5 44t-33.5 56q0 12 17 32.5t7 37.5 q4 12 26.5 20t26.5 25l-24 407q-2 6 -19.5 20.5t-11.5 28.5q10 6 23.5 16.5t13.5 24.5q2 18 -20.5 37t-14.5 41q-27 16 -37 27q-23 18 -10 41q14 14 14 47q-2 16 -2 22q-16 18 -30 39zM610 590l13 -19q37 8 65 23q41 25 60 35q8 10 43 39q51 43 57 77q-31 41 -92 97 q-94 84 -103 92q-12 4 -18 4q-17 0 -23 -12z" />
<glyph unicode="e" horiz-adv-x="1001" d="M43 1165q10 20 12 38t2 46q0 29 -5 80t-5 64v24q4 16 4 25l12 12q20 2 55.5 -18.5t47.5 -20.5q20 0 31 23l8 39q33 0 42 -48.5t42 -54.5q41 0 123 8.5t123 8.5q27 0 40 -2q23 -2 50 2q82 12 88 12q41 0 67 -25q18 4 67.5 7.5t74.5 17.5q27 4 30 -10q4 -16 -19.5 -37 t-23.5 -27q0 -8 21 -20q18 4 24 -9q0 -16 -23.5 -29.5t-21.5 -31.5q4 -12 29 -18.5t25 -24.5q-6 -10 -33 -18.5t-29 -24.5q8 -10 36 -19.5t30 -25.5q-20 -8 -64.5 -14.5t-62.5 -12.5q4 -18 24.5 -26t42 -13.5t48 -9.5t22.5 -26q-10 -8 -27.5 -12.5t-36.5 -4.5q-16 0 -33.5 2 t-64.5 6t-123 4q-63 0 -129 -6q-20 -10 -16 -47l28 -18q125 10 198 15t163 5q0 -14 17.5 -29.5t17.5 -25.5q-8 -12 -50 -29.5t-42 -38.5q0 -8 8 -22q0 -18 -25.5 -31.5t-25.5 -30.5q6 -10 29.5 -23t23.5 -26q0 -6 -6 -16q-6 -8 4 -21.5t8 -21.5l-43 -23l-285 -10 q-12 -10 -12 -31q0 -10 5 -28.5t5 -24.5l19 -16q33 -2 57.5 -3t42.5 -1q49 0 106.5 3t127.5 11q8 -6 2.5 -21.5t-5.5 -17.5q0 -12 17 -14q29 6 41 6t18 -10q-4 -16 -20.5 -43t-18.5 -41q-25 -20 -49 -41q0 -6 14.5 -19.5t10.5 -25.5l-74 -39q0 -10 16.5 -19.5t6.5 -25.5 q-20 -16 -47 -26.5t-72 -10.5q-29 0 -62 4q-84 10 -104 10h-25q-16 -4 -26.5 -5t-40.5 -1q-14 0 -46 2t-48 2q-31 0 -54.5 -5t-46.5 -19q-10 -2 -24 2q-39 10 -45 10q-18 0 -29 -19q-27 2 -45 15q-29 18 -56 57q-29 16 -38 25q-20 14 -21 34q0 61 12.5 184.5t12.5 182.5 q0 135 -19 264q0 55 -5 147.5t-5 110.5z" />
<glyph unicode="f" horiz-adv-x="1001" d="M35 1352q4 8 4 22q-4 29 -4 41q0 23 18 35q14 -14 29 -14q10 0 24 8q33 18 41 18q12 0 23 -10q25 4 35 4q16 0 26 -14q8 -4 21.5 -32t32.5 -26q10 18 16 29.5t23 11.5q12 -2 30.5 -18t30.5 -18q47 0 147.5 8t129.5 8h36.5t42.5 -4q18 -6 54 7t49 13q27 0 43 -28 q-8 -8 -8 -21q8 -29 8 -39q0 -16 -21 -18q-18 -6 -37 -10q-20 -8 -22 -27q20 -10 49 -10h25q20 4 28 4q29 6 35 4q2 -5 2 -10q0 -20 -32 -42q-40 -26 -40 -32q0 -12 34 -22.5t53.5 -15.5t29.5 -13q0 -20 -50 -28.5t-50 -14.5q0 -8 39 -31q31 -10 33 -14q2 -12 -17.5 -23.5 t-11.5 -30.5q18 -18 47 -32.5t55 -26.5l2 -16q-10 -2 -30 -2q-23 0 -68 8t-70 8q-10 -8 -10 -16q4 -16 4 -23q0 -14 -12 -18q-16 -10 -28.5 -17.5t-8.5 -23.5q6 -8 30.5 -10.5t31.5 -16.5q2 -16 -11.5 -42t-13.5 -36q0 -18 20 -33q4 -16 -14 -38q-16 -2 -28.5 -3.5 t-16.5 -11.5q-2 -16 26.5 -31.5t28.5 -19.5q0 -8 -22 -16q-37 -6 -70 -7q-39 0 -92 9q-121 18 -152 18l-18 -24q0 -47 8 -137.5t8 -133.5q0 -41 -6 -84q-8 -10 -16 -10q-25 12 -35 16q-25 16 -38 42t-25 53q-18 6 -26.5 -14.5t-25.5 -14.5q-27 -6 -39 -6q-10 0 -16 18 q-20 -4 -47 -27.5t-35 -25.5q-16 -14 -58 -20.5t-61 -22.5q-12 2 -19 18.5t-13 32.5q0 86 2 174t4 178q0 152 -17 265l7 22q0 123 -6.5 233.5t-24.5 217.5zM473 985q-4 -12 21 -41q18 -2 53 -2q39 0 78 2t77 4l21 8q4 4 -2 19q-47 6 -117 12t-119 6z" />
<glyph unicode="g" horiz-adv-x="1288" d="M-31 780q0 23 15 43q8 12 32 37q35 104 113 211q59 80 168 189q49 49 143 77q135 41 154 49q68 10 115 16.5t90 6.5l6 -10q2 -8 -15.5 -29.5t-17.5 -28.5q0 -8 19 -14l163 14q10 -8 11 -20q0 -10 1 -21.5t15 -15.5l102 10q2 -10 -13 -28.5t-15 -26.5q0 -6 12 -16h33 q18 0 26 -6q-2 -12 -18 -24.5t-25 -16.5l-292 -101q-16 -10 -26.5 -23.5t-2.5 -27.5q14 -18 37 -18q10 0 20 10q8 14 29 14q12 0 19 -6t16 -12q16 -14 26 -13q8 2 14.5 16.5t18.5 8.5q8 -8 18.5 -37t26.5 -33q10 8 17.5 38t27.5 36q18 -4 57 5t50 9q33 0 49 -30 q10 -33 14 -69t4 -71q0 -55 -4 -100q-14 -158 -14 -172q0 -39 6 -82q0 -59 16 -145q25 -125 27 -146q-6 -20 -27 -4q-2 4 -23.5 45t-37.5 51q-10 -16 -10 -40q0 -12 4 -37t4 -35v-12q-4 -8 -4 -11q-10 2 -30.5 27t-33.5 25q-10 0 -20 -17q4 -37 -25 -53q-12 -2 -27.5 13.5 t-21.5 15.5q-12 -2 -34.5 -15.5t-35.5 -13.5q-4 25 -7 43t-15 31q-14 2 -34.5 -12.5t-31.5 -16.5q-39 0 -118.5 -8t-118.5 -8q-23 0 -49.5 1t-67.5 15q-106 72 -160 106q-96 63 -139 140q-86 96 -119 141q-57 78 -82 156q-4 10 -4 26zM494 764q0 -16 4 -25l98 -102 q29 -10 37 -10h20q57 0 95 30q4 37 4 54q0 61 -21.5 154t-23.5 118q2 10 -8.5 19.5t-18.5 7.5q-33 -23 -72 -66q-16 -18 -61 -78q-18 -25 -35.5 -51.5t-17.5 -50.5z" />
<glyph unicode="h" horiz-adv-x="1185" d="M12 178q23 207 27 266q12 145 12 269l-4 385q0 39 -5 103.5t-5 74.5q14 12 14 33q-2 29 -2 59q6 -2 16.5 -16.5t27 -23.5t42.5 -19q8 14 12.5 50t12.5 50q14 4 27.5 -9.5t22.5 -31.5q2 -27 4.5 -39t14.5 -20q14 20 27.5 38.5t36.5 41.5q8 16 13 28.5t13 16.5q23 0 35 -23 q4 -16 4 -27q-2 -23 -2 -34q0 -25 15 -39q8 14 20 14q23 -6 47 -10q14 16 24.5 56t14.5 48q16 -10 21.5 -30.5t5.5 -51.5q2 -14 2 -27.5v-27.5q0 -23 -2 -70t-2 -69q0 -41 2 -65.5t14 -53.5q10 -10 27 -10q8 0 26.5 5t24.5 5q10 12 14 32.5t4 43.5q0 16 -1 31.5t-1 31.5 q0 37 2 77t4 81q8 4 20.5 -5t18.5 -9t13 14q0 18 -1 34.5t-1 30.5q0 29 10 64q23 -12 40 -48t25 -54q14 -2 22.5 16t20.5 10q12 -6 21.5 -33.5t30.5 -21.5q10 8 16 40t25 38q14 -14 25 -22.5t26 -8.5q10 0 22 12q12 4 23.5 -6t23.5 -18q14 12 26.5 45t27.5 47 q18 -8 25 -19.5t8 -29.5q0 -16 -2.5 -36t-4.5 -38q0 -31 15 -45l43 31l12 -15q6 -63 8 -156.5t2 -105.5q0 -47 -2 -145.5t-2 -149.5q0 -18 -21.5 -45.5t-23.5 -39t-2 -30v-26.5q0 -51 20 -203q10 -76 11 -121q0 -37 -6 -73q-23 -14 -30 -37t-7 -53v-37q-18 -23 -35 -6 q-16 25 -25 34q-14 23 -37 11q-10 -8 -17 -12.5t-15 1.5q-12 10 -20.5 45t-26.5 45q-18 -18 -52 -20t-63 -4q-4 4 -8 24.5t-21 20.5q-16 -27 -24 -39q-16 -23 -33 -31q-10 0 -21.5 1t-13.5 16q16 23 16 51q0 18 -8 47q-18 66 -18 86q6 35 6 70q0 53 -16 102q-16 18 -43 18 q-33 -4 -50 -6q-25 -8 -32 -25.5t-7 -47.5q2 -33 3 -50q0 -10 -5 -26q-6 -59 -12 -99t-53 -53q-10 -20 -21 -41q-10 -2 -26.5 12.5t-30.5 4.5q-12 -16 -21.5 -25.5t-23.5 0.5q-14 16 -29 33q-10 6 -24.5 -8.5t-24.5 -5.5q-8 14 -53 43q-20 12 -29 30h-22q-12 -20 -46 -46.5 t-42 -49.5q-12 -12 -27 -12q-8 0 -29 8z" />
<glyph unicode="i" horiz-adv-x="583" d="M16 1352l7 18q25 -4 35 -41t30 -41q18 66 37 131q29 -6 41 -65.5t47 -59.5q6 0 23 4q14 20 24 66.5t14 56.5q33 4 50 -22q-1 -9 -1 -16q0 -31 13 -48q16 4 24.5 22.5t16.5 39t14 35t17 22.5q18 -2 27.5 -34t25.5 -36q6 2 18.5 24t30.5 17q8 -23 8 -53q0 -25 -8 -58.5 t-14 -64.5q-12 -61 -17.5 -138t-5.5 -163v-43q45 -133 65.5 -276.5t20.5 -296.5q-4 -29 -32.5 -45.5t-55.5 -30.5q-37 4 -74 10q-8 -43 -52 -60.5t-85 -31.5q-27 -4 -38 39t-25 43q-12 0 -33 -14q-2 -2 -15.5 -11.5t-23.5 -5.5q-16 8 -40 41t-46 33q0 43 2 130t2 130v25 q0 90 -12 180q10 109 10 197q0 104 -6 194q-12 133 -19 197z" />
<glyph unicode="j" horiz-adv-x="937" d="M4 664q0 16 6 28q16 14 37 15q18 0 54 -18.5t46 -20.5q145 -33 291 -66q10 10 11 27q0 8 -8.5 31.5t-4.5 37.5q0 180 -26 379q-16 123 -62 365l12 22q18 0 32 -13.5t20 -31.5q8 -10 8 -39.5t8 -42.5q14 -43 25.5 -65.5t29.5 -28.5l11 10q4 25 4 39q0 12 -2 39t-2 39 q0 31 6 45q10 2 18 -1t27 -13q12 -23 14 -80t23 -80q10 -2 16 6q4 12 6 17l14 77q12 0 33 -22.5t37 -11.5q12 25 21.5 42t29.5 13q11 -5 20 -5q21 0 34 25q4 33 10 48.5t22 29.5q16 0 34 -1t21 -19.5t3 -50t2 -50.5q0 -27 -2 -82t-2 -81q12 -45 16 -95.5t4 -107.5 q0 -70 -8 -172q-18 -231 -19 -283q-16 -23 -73 -147q-41 -92 -109 -129q-20 -23 -51 -30t-72 -7h-51q-33 -6 -69.5 -10.5t-71.5 -4.5q-90 0 -158.5 25t-120.5 86q-16 8 -34.5 18.5t-22.5 26.5q4 6 32.5 18.5t20.5 36.5q-14 16 -14 37q0 20 16 49q-18 14 -27.5 70.5 t-50.5 65.5q-14 16 -14 41z" />
<glyph unicode="k" horiz-adv-x="1155" d="M37 1047q0 23 39 34q4 12 6 26.5t2 27.5q0 27 -10.5 82t-10.5 86q0 18 3 28q0 23 -8.5 66t-8.5 65q0 12 4 33q16 4 23 4q16 0 29.5 -5t27.5 -19q12 -18 17.5 -55.5t9.5 -67.5q12 16 22.5 57t20.5 59q12 4 34.5 -2t26.5 -6q14 0 23 15q18 4 42.5 -28t32.5 -32q10 0 25 29 q4 37 25 45q33 4 47 4q35 0 57.5 -9t37.5 -38t20.5 -61.5t5.5 -79.5v-62q20 -14 22 -12q100 141 203 282q27 -3 37 -36q4 -16 4 -27q0 -10 -7.5 -39t-7.5 -41q0 -27 19 -39q29 14 61 15q43 0 72 -25q23 2 33 2q23 0 37 -14q-6 -25 -11 -47q0 -10 9 -19l16 12q18 12 31 13 q16 0 24 -15l4 -6q-31 -59 -108.5 -176t-108.5 -176v-51l199 -287q18 -29 27.5 -43t9.5 -27q0 -14 -15 -26q-27 -41 -38 -60q-25 -33 -56 -39q-4 -23 -45 -71q-23 -29 -26 -45q-14 4 -39 -10.5t-33 -14.5q-12 0 -29 19q-18 6 -38.5 -16.5t-37.5 -20.5q-66 102 -98 149 q-39 53 -72 84q-12 4 -20 -10t-11 -23.5t-5 -75t-43 -83.5q-10 8 -21 8q-10 0 -31.5 -23.5t-40.5 -17.5q-23 20 -59 20q-23 0 -51.5 -8t-42.5 -12q-55 4 -111 10q-61 10 -96 51q0 61 2 179t2 174v77v31v27v22q0 39 -2 80t-8 84q4 18 -19.5 53t-23.5 48z" />
<glyph unicode="l" horiz-adv-x="901" d="M2 1247q23 -6 36 17.5t25 46.5q2 39 5.5 64.5t33.5 31.5q10 4 24.5 9t23.5 5q14 0 26 -12q2 -4 25 -45q16 -29 18 -49q4 -4 10.5 -6t8.5 2q8 14 18 29.5t31 9.5q47 0 86 -29q12 -31 19 -42t22 -7q10 29 45 28q14 0 20 -2l10 -20l-16 -426q0 -25 2 -51.5t4 -50.5v-23 q-6 -27 -8 -39q18 -16 45 -16q18 0 51 9t43 9q111 18 221 39h25q20 0 25 -12q-6 -29 -48 -44.5t-51 -25.5q10 -14 27 -14q23 2 33 2q16 0 24 -10q-2 -20 -35.5 -38t-33.5 -28q0 -8 12 -20h31q47 0 53 -21q-33 -25 -114 -31t-107 -18q-2 -6 10 -23q33 -2 72 -4t63 -12 q2 -12 -13.5 -19.5t-38 -12.5t-49 -9t-44.5 -20q8 -20 46 -22.5t48 -10.5q-51 -47 -113.5 -78t-128.5 -31q-41 -8 -81 -12t-89 -4q-70 0 -118 8q-2 2 -12.5 24.5t-28.5 22.5t-53.5 -12t-53.5 -12q-20 0 -37 10v43q0 47 -3 68.5t-21 48.5q0 57 -8.5 173.5t-8.5 176.5 q0 66 5 106.5t22 94.5q0 47 -10 106q-25 141 -25 178z" />
<glyph unicode="m" horiz-adv-x="1736" d="M41 233q0 51 22 117q63 184 66 197q-6 16 -6 49q0 41 23.5 109.5t27.5 89.5q20 57 53 249q27 158 74 242q4 37 35 115q20 51 22 69q4 10 16.5 12.5t24.5 4.5l23 -45h2q20 0 59 -41q23 -23 37 -23q16 0 33 17q14 -8 36.5 6t39.5 6q109 -219 217 -438q8 -14 22 -15 q12 0 23 11q37 55 82 151q23 47 45 96q14 6 26 0q4 -23 6.5 -39t14.5 -22q18 2 31 25q2 4 12 31.5t12 94t31 95.5q0 23 1 46t15 36q18 2 40 -10.5t32 -12.5q14 -18 26.5 -29.5t26.5 -11.5q12 0 21.5 9.5t22 19.5t26.5 0q4 -4 16.5 -23.5t24.5 -21.5q35 6 51 6q12 0 25 -6 q39 -43 56 -146.5t24 -122.5l61 -268q35 -66 59 -151q18 -66 37 -160q-10 -12 -25.5 -2t-17.5 10q-20 16 -32.5 58t-18.5 51q-39 88 -78 178q-4 0 -10 -9.5t0 -17.5q8 -18 11 -48t7 -58q72 -182 90 -228q37 -88 101 -225q0 -8 -17.5 -27.5t-9.5 -37.5q-22 26 -62 26h-3h-45 q-8 -18 -52 -22q-39 -4 -39 -34q0 -3 1 -7q-20 0 -48 6t-55 12l-151 156l-80 164q-10 2 -14.5 2t-6.5 2q-18 -25 -63 -111q-66 -123 -140 -166q-4 -14 12.5 -39.5t10.5 -38.5q-72 41 -150 115q-115 117 -229 236q-18 0 -27.5 -12.5t-15.5 -34.5q-12 -47 -37 -109 q-39 -96 -43 -107q-29 -35 -59 -40q-10 8 -15.5 48t-35.5 33q-63 -70 -125 -139q-18 0 -26.5 18.5t-14.5 36.5q6 29 4 35q-12 12 -31 13q-16 0 -63 -37q-23 -18 -35 -19q-23 0 -37 51z" />
<glyph unicode="n" horiz-adv-x="1439" d="M23 1374q0 18 6 41q6 12 16 12q8 0 20.5 -10t16.5 -10q37 10 76 20q43 16 53 56q14 -6 24.5 -39t26.5 -43h37q35 0 58.5 9t31.5 38q7 1 14 1q27 0 46 -19q33 -49 65 -97l371 -364q61 12 66 79.5t10 131.5q0 16 9 45.5t9 40.5q0 16 -10 32q-16 -12 -21.5 -50t-11.5 -52 q-16 25 -16 68q0 20 5 51t11 59q12 8 16 8q10 -18 23 -34q6 4 20.5 33.5t38.5 19.5q20 -14 35 -6q4 4 18.5 26.5t32.5 22.5q10 -8 10 -27q0 -39 13 -49q10 2 19 14.5t20 26.5q27 16 48 25.5t48 9.5q23 0 47 -12q8 0 33 28q12 14 24 15q12 0 23 -9q6 -25 12 -57.5t6 -60.5 q-8 -39 -12 -110t-4 -122v-78q0 -68 -11.5 -227.5t-11.5 -208.5t2.5 -88t10.5 -82q8 -29 12 -90t6 -82q-8 -25 -26 -24q-33 14 -46 14q-14 0 -20 -27q-10 -4 -40 -7t-42 -11q-18 -6 -46 10t-34 16q-12 0 -24 -14l-74 62q-35 0 -31 -23t-16 -43q-51 6 -111 61q-88 82 -98 88 q-53 55 -109.5 112.5t-111.5 94.5q-16 4 -23.5 -6t-10.5 -26.5t-3 -34v-25.5q0 -72 -4 -103.5t-29 -60.5q-10 -4 -31.5 5.5t-25.5 9.5q-14 0 -15 -27q0 -51 -75 -94q-45 -25 -58 -51q-23 0 -39 14q-29 27 -57 53q-20 10 -53 10q-18 0 -41 -2t-25 -2q-12 0 -33 4l-20 58 q0 76 7 226.5t7 199.5v22q0 39 -2 81t-8 81q-8 31 -10 58.5t-2 64.5q0 25 2 74t2 73v37q-4 25 -4 37q0 23 -6 66t-6 63z" />
<glyph unicode="o" horiz-adv-x="1292" d="M-27 803q18 162 58 268q51 135 150.5 228.5t215.5 142.5q18 4 36 -17.5t28 -23.5q31 8 88 31q98 38 150 38h3q16 0 27 -2l37 -30q111 -18 203 -62.5t172 -124.5q23 -31 33 -47q18 -31 12 -59q82 -262 82 -543q-20 -86 -41 -170q-31 -96 -92 -151q-16 -4 -29 -5 q-33 4 -49 5q-6 0 -23 -5q-117 -41 -233.5 -65.5t-231.5 -24.5q-20 6 -39.5 19.5t-42.5 36.5q-78 0 -151 39q-53 29 -129 92q-51 33 -105 92l-88 110q-22 30 -22 78l2 70q0 25 -4 44t-17 36zM412 791q41 -51 59 -70q39 -41 74 -57q7 1 18 1q19 -1 51 -3q50 -4 52 -3 q35 0 58.5 7.5t41.5 27.5q39 96 43 109q12 39 12 71q0 41 -20 76l-90 84q-53 0 -115 -16q-76 -25 -111 -35q-47 -20 -61 -84q-8 -76 -12 -108zM1051 395q10 -10 23 -12t34 0q14 4 17 20.5t10 22.5l20 94q0 17 -8 31l-10 -8z" />
<glyph unicode="p" horiz-adv-x="1079" d="M4 1427l2 54q37 2 76 4q25 -18 41 -74q10 -35 20 -51q14 14 15 37q-4 31 -4 47t6 24q6 -4 20.5 -26.5t32.5 -22.5q14 16 14 51q0 43 6 54q14 -8 28 -36t24 -38q10 2 30.5 -3t26.5 -5q14 0 23 10q0 20 1 32.5t15 16.5q14 2 27.5 -8t27.5 -20q139 0 273 -41q12 -8 8 -27 q33 -23 117 -68q129 -70 180 -135q2 -14 24 -127q16 -84 17 -131q0 -41 -8.5 -75.5t-28.5 -69.5q-23 -16 -45 -92q-10 -37 -33 -56q-43 -61 -129 -100q-231 -104 -240 -113q0 -35 9 -88q18 -119 18 -147q-6 -2 -16.5 -11.5t-18.5 -7.5q-10 16 -22.5 34t-30.5 18q-8 0 -21 -7 q-8 -6 -22 3.5t-21 7.5q-8 -6 -20 -36t-37 -22q-12 20 -26.5 44t-38.5 34q-12 -2 -31 -27.5t-41 -15.5q-16 31 -27 33q-18 0 -48 -26.5t-54 -18.5q-2 4 -2 33q0 16 -15 24q-20 4 -34.5 -23.5t-32.5 -25.5q14 84 31 168q16 102 16 176q-14 49 -18.5 120t-6.5 136 q0 33 -11 103.5t-11 91.5q0 37 10 65q-23 176 -45 354zM518 997q0 -25 7 -72.5t7 -66.5q8 -8 19 -8q10 0 28.5 11t24.5 13q20 12 43 27q43 29 43 60q0 6 -2 12l-108 84q-20 10 -33 10q-14 0 -21.5 -18.5t-7.5 -51.5z" />
<glyph unicode="q" horiz-adv-x="1402" d="M18 766q0 47 31 86l-14 63q53 156 92 234q63 123 154 201q6 -1 12 -1q27 0 55 21q45 35 64 37q131 78 293 78l43 -27q184 0 323 -69q160 -80 225 -238q-2 -16 -2 -23q0 -51 41 -139t41 -145q2 -8 2 -27q0 -27 -10 -53q-16 -35 -22 -51q-45 -39 -60 -56q-31 -31 -45 -63 q10 -43 45 -105q45 -80 54.5 -106.5t35.5 -81.5q20 -41 25 -51q-23 -16 -49 -17q-29 0 -74 29q-53 35 -76 39q-8 -16 8.5 -39.5t10.5 -38.5q-23 -4 -39 4q-39 27 -58 37q-8 -6 -3 -26.5t5 -24.5q0 -6 -6 -8t-26 6q-47 41 -70 59q-38 30 -71 30q-6 0 -11 -1 q-72 -20 -153.5 -34.5t-155.5 -14.5q-133 0 -235.5 42t-176.5 107q-86 78 -108 164q-66 106 -74 123q-20 43 -21 80zM473 821q0 -25 25 -55q35 -45 45 -56.5t29.5 -19.5t54.5 -8q14 0 64 7t75 7q37 27 78 76q29 35 69 88l2 35q-16 41 -43 80q-16 25 -57 72 q-35 0 -102.5 22.5t-106.5 22.5q-41 -43 -71.5 -114t-57.5 -136q-4 -16 -4 -21z" />
<glyph unicode="r" horiz-adv-x="1042" d="M31 1278q0 55 16 98q0 18 -3 48t-3 32q0 16 2 27q20 27 49 26q16 0 39 -10q53 -24 71 -24h1q8 2 26.5 18t34.5 8q18 -25 39 -47q4 -1 8 -1q29 0 56 24q0 33 7 42t25 9q16 25 52 24q10 0 17 -1t24 -7l184 -110q92 -72 184 -142q59 -47 103.5 -105.5t54.5 -117.5 q-27 -25 -44.5 -87t-31.5 -85l-131 -162q0 -47 25 -96q0 -2 53 -88l117 -195l8 -49q-27 -8 -62 -8q-27 0 -52.5 5t-57.5 18q-16 -2 -22.5 -32t-31.5 -30q-47 12 -92 25q-18 0 -34 -9q-8 -8 -13 -14q-16 -16 -26 -20q-37 29 -72 90q-45 78 -62 96q-25 -2 -24 -35v-33 q0 -20 -4 -24t-8 -27.5t-25 -9.5q-4 4 -4 13.5v15.5q0 16 -10 22q-10 -10 -29 -10q-14 0 -35 4q-18 -6 -48 -48t-48 -42q-14 0 -33 18q-4 2 -33 33q-20 20 -34 21l-17 -4l-76 -37l-8 14q-8 63 -8 143q0 59 3 151.5t3 94.5q-8 35 -8 82q0 29 4 95.5t4 74.5v53q-6 25 -8 35 q4 37 4 53q0 33 -8 98.5t-8 98.5zM442 1063q0 -35 2 -70t5 -67l8 -13q12 2 26 7q8 8 47 36q55 41 56 80q-27 43 -58 68q-36 31 -77 39q-8 -33 -9 -80z" />
<glyph unicode="s" horiz-adv-x="960" d="M-4 440v9q117 53 233 106q131 76 166 190v7q0 32 -30 71q-41 49 -43 74l-52 41l-28 184q121 223 137 246q47 70 113 131h8q2 -18 4 -31.5t18 -17.5q-8 -20 -14 -33.5t-8 -25.5q25 0 66.5 39.5t64.5 39.5q25 0 49 -26q12 10 35 10q31 -4 43 -4q20 0 30 10q8 -2 33 -15 t41 -3q4 -10 0 -20.5t-24 -45.5q-16 -16 -23 -22q-14 -14 -16 -29q4 -1 9 -1q25 0 69 17q33 12 45 13q6 0 22 -4q-18 -53 -76 -68q-4 -6 -82 -61q-49 -35 -49 -82q20 -129 23 -140q23 -74 80 -116q22 -86 22 -175v-8q0 -102 -28 -180q-70 -123 -166 -241q-37 -33 -86 -33 q-20 0 -37 6q16 31 33 61q0 12 -15 21q-14 12 -43 12q-23 0 -67.5 -14.5t-63.5 -14.5q-23 0 -36 16.5t-13 59.5q-16 12 -35 13q-18 0 -47 -10.5t-35 -11.5t-22 -1q-25 0 -49 10q2 8 20 19.5t14 23.5l-12 8q-20 0 -61 -10t-62 -10q-31 0 -55 16z" />
<glyph unicode="t" horiz-adv-x="1085" d="M-8 1061q-6 18 14.5 29.5t24.5 15.5q-4 31 -4 45q0 37 32 37q39 10 43 20q-10 20 -52 28.5t-54 27.5q-8 18 15.5 37.5t23.5 29.5q0 12 -5 18.5t-7.5 13.5t-2.5 11q0 12 11.5 39t11.5 39l16 10l594 -8h33h31q86 0 124 3t93 13q37 -4 60.5 -5t39.5 -13q-10 -25 -20 -47 q0 -10 14 -16l27 -5q2 -14 -8.5 -29.5t-29 -25.5t-38.5 -20q0 -18 28.5 -20.5t28.5 -10.5q0 -4 -10 -21q-23 -35 -92.5 -40t-87.5 -15q-2 -6 4 -14t18 -8q55 0 118 -10.5t122 -20.5q6 -6 0 -27q-20 -14 -43 -19t-59 -5h-62q-39 0 -57 -4q-10 -6 -13.5 -14.5t7.5 -12.5 q8 -8 37.5 -15.5t37.5 -21.5q-20 -20 -45.5 -27.5t-62.5 -7.5q-20 0 -72.5 4.5t-54.5 4.5q-20 -31 -22.5 -104t-6.5 -87q4 -33 6 -75t2 -83q0 -37 -2 -112.5t-2 -116.5q0 -16 2 -54t2 -57q0 -20 -22.5 -25t-26.5 -11q-29 -49 -43 -73t-39 -44q-23 8 -35 31.5t-22 60.5 q-33 41 -67.5 63.5t-75.5 22.5q-12 -4 -25 -8q-31 -12 -45 -8q-23 25 -29 34q-14 23 -8 41l10 316q0 57 -6 116q-18 176 -18 195l-12 10q-29 0 -78 -5t-60 -5q-35 0 -60.5 7t-45.5 28z" />
<glyph unicode="u" horiz-adv-x="1214" d="M14 590q0 39 8.5 123t8.5 127v26q0 14 -4 43q6 59 6 113q0 49 -6.5 149.5t-6.5 149.5v52.5t9 72.5q10 10 24 10q8 0 24.5 -6t24.5 -6q14 0 27 12q16 -29 37 -125q12 -51 24 -80q14 14 22.5 55.5t10.5 45.5q12 43 26.5 90t43.5 78l20 -2v-58q0 -70 3 -103.5t20 -72.5 q25 31 35 115t30 117q20 12 29.5 16t22.5 0l8 -10q-4 -33 -4 -49q-6 -68 -6 -89q0 -31 2 -45l12 -8l84 64q6 -12 -1 -39t-5 -37q0 -72 -27 -361q-12 -133 -12 -217q25 -23 68.5 -32t84.5 -17q31 4 39.5 24.5t8.5 47.5q0 25 -12.5 76t-12.5 78q0 51 -6 159.5t-6 163.5 t3 102.5t23 112.5q6 16 23.5 18.5t25.5 0.5q4 -18 8.5 -75t18.5 -83q12 0 18.5 16.5t12.5 36.5q0 49 12 81t47 52q37 -8 86 -33q0 -59 3 -85.5t22 -61.5q20 2 20 31q0 39 6 45q8 76 13 92q14 49 49 72q4 -12 10 -61.5t18 -69.5q12 -4 40 0t36 4q31 0 43 -21l-18 -354 q0 -53 -6 -157.5t-6 -158.5l4 -446q-43 -23 -43 -76q0 -12 5 -34.5t3 -26.5q-6 -8 -15.5 -4t-21.5 10q-6 20 -25.5 42.5t-38.5 43.5q-8 -2 -10 -16.5t-8 -18.5q-31 0 -72 64q-20 33 -47 36q-8 -25 -12 -66.5t-4 -76.5v-49q-18 -6 -21 -2q-6 6 -12 26.5t-18 26.5 q-12 4 -27.5 -2t-19.5 -29q0 -35 -13 -45q-25 0 -36 27t-15 31q-10 25 -16 84t-19 86q-41 0 -82 -25q-121 -72 -127 -74q-113 0 -204 28t-170 93q-55 45 -76 102.5t-21 135.5z" />
<glyph unicode="v" horiz-adv-x="1462" d="M35 1368q-10 14 1 27.5t27 15.5q18 -8 39 -46t39 -38q12 0 27 8q18 4 34.5 43t49.5 27q8 6 8 22q-2 16 -2 27q0 18 16 25q6 -8 13.5 -14.5t15.5 -6.5q10 0 30.5 14.5t28.5 14.5q16 0 27 -35q8 -10 21.5 -12t27.5 -4q12 -10 28.5 -42t35.5 -36q4 8 4 24t-9.5 47t-11.5 41 q-12 23 -19 39.5t-7 34.5q0 12 6 25q31 -29 59 -76q39 -73 80 -145q63 -180 127 -361q14 -2 20.5 6t12.5 25q90 266 182 534q16 10 21 11q0 -25 33.5 -46.5t23.5 -52.5q10 -16 27 -8q27 43 36 62q19 29 47 29q6 0 11 -1q10 -6 10 -20q0 -6 -2 -14.5t-4 -15.5t-2 -13 q18 -16 45 18q16 23 31 25q6 4 16 6t21 4q4 -23 -11.5 -60.5t-15.5 -52.5q0 -14 6 -26q25 6 46.5 43t33.5 45t29.5 18t35.5 13q4 -10 -3 -28t-7 -24q0 -12 21 -20q43 0 61 -27q-10 -51 -53 -131q-33 -63 -39 -76l-162 -370l-117 -310l-90 -278v-31q0 -29 -14 -43 q-12 -4 -23 -4q-23 0 -22 21q2 6 2 22q0 18 -10 21q-31 -6 -33 -7q-18 0 -27 21q-4 14 1 44t5 38q0 16 -6 26q-25 -18 -36 -57t-11 -80q-18 -18 -35 -4q-10 6 -17 33t-30 27q-8 -20 -41.5 -26.5t-38.5 -27.5q-12 -4 -28.5 6.5t-22.5 10.5q-14 -23 -21 -34t-16 -11 q-8 0 -18 6q-33 4 -54.5 6t-25.5 27q-14 68 -47 145q-33 70 -64 139q-47 182 -149 428q-90 209 -178 420z" />
<glyph unicode="w" horiz-adv-x="1798" d="M-23 1358q0 33 11 53q14 4 24.5 -10.5t16.5 -16.5l39 2q8 -10 77 -163q25 -53 58 -93q12 4 12 21q0 8 -6 26.5t-6 28.5q-16 55 -23 82q-14 53 -14 86q0 12 4 37q10 23 37 10q16 -33 33 -39q12 -4 23 -1t24 8q4 -4 22 -54q12 -35 37 -35q16 27 23 37q14 23 32 27 q12 -35 19.5 -51.5t21.5 -26.5q12 -2 23.5 7.5t23.5 19.5q23 -35 43.5 -116t34.5 -110q16 -2 23.5 12.5t15.5 28.5q14 45 49 97q84 121 97 159q20 29 30 43q20 29 45 31q14 6 35 -9t35 -5q8 4 47 43q21 21 43 21q8 0 17 -3q74 -80 135 -194q37 -68 96 -211q4 0 11 -7.5 t14 -5.5q20 29 34.5 94.5t18.5 80.5q20 100 33 149q23 88 84 121q8 -6 16 -10l-10 -138q12 -12 22 -12q12 0 35 19.5t31 21.5q8 -2 22.5 6t24.5 4q8 -6 8 -20q0 -8 -4 -22.5t-4 -20.5q0 -18 28 -17q20 14 40 69.5t57 64.5q4 -6 4 -21q-2 -16 -2 -24q0 -23 18 -29q6 4 39 37 q25 25 41 24q10 0 27 -12q12 -4 16 -18l-6 -37l-129 -320l-55 -147l-115 -309l-90 -394q-8 -8 -12 -30q-10 -43 -31 -54q-25 -2 -37 -2q-33 0 -43 27q0 29 -27 53l-49 35q-29 -2 -41 -2q-18 0 -35 10q-49 78 -120 211q-59 109 -117 217q-16 27 -37 6l-31 -47l-188 -383 q-12 -8 -21.5 -14t-19.5 2q-8 6 -8 20q4 27 4 37q0 14 -21 13q-8 -37 -59 -68t-59 -65q-18 10 -51 -8.5t-38 -18.5q-18 0 -28 31q0 25 -21 51q-31 39 -32 45q-82 213 -175 483q-82 244 -159 488q-4 23 -7.5 49t-3.5 45z" />
<glyph unicode="x" horiz-adv-x="1327" d="M-45 1335q18 -2 38.5 -7t37.5 -11q31 -27 45 -39q29 -25 51 -25q4 18 12 29.5t25 1.5q12 -8 25.5 -17.5t25.5 -4.5q4 8 -1 27.5t-5 25.5q0 14 16 22q14 0 37 -15t31 -15q10 0 18 8q-6 31 -6 45q0 12 10 20q16 -2 27 17q25 43 31 43q12 0 26 -13q14 -16 32 -30.5t36 -10.5 q8 4 10 21.5t15 24.5l18 -7q76 -100 154 -200l16 4q33 29 98 125q103 153 198 153h1q20 0 49 -6l10 -14q2 -4 -7 -17.5t-9 -17.5q0 -8 14 -10q4 23 25.5 33t44.5 20h22q16 0 19 -10q0 -8 -9.5 -31.5t-2.5 -38.5q6 -6 22 -18.5t19 -22.5q-23 -37 -44.5 -77t-29.5 -74 q18 -10 33.5 7t31.5 36q18 14 41 31.5t45 17.5q10 0 27 -6q31 -23 45 -33q29 -23 18 -45q-170 -188 -337 -375l6 -35l229 -268q6 -12 12 -25.5t4 -27.5q-18 -10 -29.5 -18.5t-11.5 -20.5q0 -10 7.5 -21.5t7.5 -25.5q0 -16 -7.5 -30.5t-21.5 -35.5q-16 -12 -43 -12 q-18 0 -40.5 7t-43.5 15q-10 -8 -10 -24q0 -2 4 -18.5t2 -22.5q-20 2 -46 -16.5t-36 -18.5t-24 10q-25 0 -54 43q-16 27 -35 31q-10 -10 -10 -18q0 -6 9.5 -28t0.5 -34q-12 -8 -21 -13t-17 -5l-166 217q-6 10 -23 10q-12 0 -20 -8l-215 -260q-8 23 -23 35q-20 18 -47 12 q-20 6 -29 8q-29 8 -47 8q-23 0 -39 -8q-18 12 -18 39q0 8 4 20q8 10 12 16.5t2 14.5q-12 6 -20 6q-16 0 -50 -32q-26 -24 -48 -23q-7 0 -13 2l-20 4q4 8 4 23q0 16 -12.5 44.5t-12.5 43.5q0 12 11 28l188 277q24 35 50 73q22 32 23 62q0 5 -1 10q-72 119 -215 281 q-74 80 -146 160q-10 10 -10 28z" />
<glyph unicode="y" horiz-adv-x="1196" d="M12 1210q0 12 25 21q10 2 21.5 -13.5t23.5 -0.5q0 14 -15.5 38.5t-15.5 32.5q0 18 24.5 28.5t51.5 35t33 49.5q14 0 43 -27q16 -14 24 -14t17 8q0 10 -4 21q-10 29 -11 32q0 12 13 23q16 2 42.5 -18.5t45.5 -12.5q12 23 21 38t30 9q45 -4 82 -63q16 -29 33 -58 q31 -53 47 -77q29 -43 59 -66q29 4 47.5 30.5t36.5 53.5l125 207q23 27 39 18q8 0 11 -14t9 -16q12 -6 39 0t37 6q25 0 33 -27q20 6 34.5 26.5t28.5 41.5q12 2 34 11t30 9q19 0 31 -20h47q8 -18 8 -39q-6 -51 -10 -101q-16 -33 -22.5 -120.5t-31.5 -122.5 q-63 -117 -153 -338q-109 -266 -144 -342q-16 -53 -32.5 -107.5t-42.5 -93.5q-20 0 -37 26.5t-37 20.5q-27 -49 -41 -72q-24 -39 -60 -39q-4 0 -8 1q2 31 2 47q0 27 -5 42t-23 27q-35 -14 -68 -26q-10 25 -49 38t-51 27q-45 -16 -75 -25.5t-58 -25.5q-6 18 -6 37q0 35 30 76 q43 59 49 71l109 189l-8 37l-238 241l-164 195q8 8 9 20q0 8 -4 19q-10 25 -11 26z" />
<glyph unicode="z" horiz-adv-x="1333" d="M-59 907q-2 12 11 39t13 37q0 16 -22 29v12q20 23 57 43q88 53 100 63q0 6 -11 19.5t-1 21.5q94 31 191 64q2 4 -3.5 7t-16.5 6t-21 3q-18 0 -57.5 -7t-51.5 -7q-31 0 -55 16q4 11 44 29q33 15 33 39q0 5 -1 10q-18 18 -7 35q6 4 33 7t27 26q-37 20 -53 31q-31 20 -21 53 l23 6l391 -23l288 -8h347q29 -14 57 -26q12 0 23.5 13t25.5 28.5t29 19.5q20 4 35 -18q4 -7 12 -23l-14 -43q-70 -78 -142 -172q-16 -20 -217 -301q-12 -25 -88 -133q-57 -82 -70 -144q18 -12 38 -15t38 -3t53 4t54 4q37 0 128 4t97 4h37q25 -4 37 -4q-4 -14 -19.5 -20 t-29.5 -12q-98 -25 -195 -48q29 -12 96.5 -16t96.5 -18l2 -13q-82 -25 -164 -47q25 -12 92 -20t100 -27q2 -10 -8 -16t-69.5 -11.5t-168.5 -13.5q-14 -8 -4 -18q27 -10 70 -11h46.5t45.5 -6q6 -4 15.5 -10t13.5 -12q-4 -23 -47 -45.5t-43 -40.5q0 -8 10 -29q-20 -16 -55 -16 q-16 0 -49 6t-50 6q-23 0 -41 -8q-20 0 -68 -2t-73 -2q-39 0 -72.5 4t-62.5 16q-35 4 -82 6t-92 2q-61 0 -197.5 -4t-140.5 -4q-8 10 -59.5 28.5t-51.5 47.5l4 18q113 164 228 330q84 184 170 369q6 12 1 25.5t-18 17.5q-125 -18 -256 -62q-41 -14 -245 -90z" />
<glyph unicode="&#xa1;" horiz-adv-x="583" d="M33 1321q0 18 10 29q49 16 74 24q45 14 71 31q14 14 26.5 57t37.5 54q10 2 30.5 24.5t41.5 9.5q0 -31 39.5 -64.5t50.5 -53.5l118 -156q10 -23 -20 -43q-18 -12 -23 -23q-20 -125 -20 -274q0 -154 21.5 -303.5t64.5 -296.5q-6 -10 -11 -48t-24 -48q-12 6 -39.5 25.5 t-44.5 19.5q-12 0 -24 -6q-16 -23 -89 -32t-73 -57q0 -12 2 -20q-2 -10 -10.5 -12t-16.5 -4l-10 39q-12 20 -27 20q-10 0 -30.5 -16.5t-32.5 -16.5t-27 17q-23 -2 -35 -2q-16 0 -24 10q-4 20 14.5 50t18.5 48q0 4 -4 21q-14 41 -15 88q0 29 5 84t5 69l5 330q0 57 16 100 t55 76q-25 45 -53.5 110.5t-44.5 100.5q-8 25 -8 39z" />
<glyph unicode="&#xa2;" horiz-adv-x="612" d="M45 938q0 25 7 46.5t22 47.5q-12 20 -13 47q0 39 41 90q35 39 70 80q51 23 66.5 103t44.5 102q10 -4 34.5 0t34.5 4q23 1 31 -28q0 -10 10 -46q4 -14 4 -26q0 -20 -16 -37q10 -10 27 -10q14 0 22 2q39 10 43 10q14 0 29 -8q6 -14 38.5 -23.5t26.5 -34.5q-80 -43 -159 -86 q-8 -16 -43 -63q-49 -68 -50 -119q29 -76 117 -117q76 -35 154 -67q-4 -12 -14.5 -15.5t-18.5 -3.5q-35 2 -68 5q-6 -4 -9 -9.5t3 -9.5q10 -16 37 -16q12 0 30.5 -1t10.5 -34q-2 -2 -21.5 -11.5t-14.5 -35t-27 -25.5h-27q-25 0 -40 -7t-19 -30q-6 -8 -7 -26q0 -20 -4 -27 q-25 -10 -47 -18q-8 0 -22 10q-86 0 -125 63q4 37 4 56q0 33 -21 49q-41 16 -68.5 78.5t-56.5 83.5q-16 23 -16 57z" />
<glyph unicode="&#xad;" d="M37 647q-2 16 19.5 35.5t21.5 34.5q0 8 -6 20q-4 14 2 25.5t22 15.5q45 0 56 17q-8 31 -15 63q4 4 17 12q23 16 22 27q0 10 -4 16q-8 49 -13 73t-18 38q0 23 11 29l235 -13l393 -24q18 -8 19 -37q-4 -37 -4 -51q-27 -12 -54 -64q-16 -31 -34 -43q-2 -14 18 -21t8 -26 q-8 -14 -34.5 -26.5t-34.5 -26.5q8 -16 18 -25.5t-2 -19.5q-31 -18 -65.5 -21.5t-67.5 -3.5h-60.5t-65.5 -4t-131 -15t-173 -22q-23 2 -45 6q-25 8 -35 31z" />
<glyph unicode="&#xbf;" d="M18 942q0 14 9.5 25.5t42.5 33.5q6 4 52 11.5t62 31.5q31 8 43 21q-59 109 -116 217q8 47 57 85t96 73q27 12 67 22.5t75 10.5q41 0 75 -15q0 -14 6.5 -35.5t4.5 -33.5q-39 -49 -39 -52q-10 -20 -4 -37q49 25 100 25h18q14 -4 29 -8q4 -20 19.5 -25.5t27.5 2.5q10 8 29 9 q16 0 26 -7q20 -20 -6 -34q-31 -27 -61 -60q-39 -41 -92 -115q-4 -33 42 -67.5t51 -66t15 -48t28.5 -20.5t20.5 -13q0 -94 -61 -188q-16 -25 -129 -162q-12 -20 16 -39q12 -8 27 -16q57 -16 115 -31q66 -23 102 -63q-2 -10 -16 -15q-31 0 -33 -2q8 -14 34.5 -20t41.5 -12 q10 -10 8 -15q-16 -16 -51 -16q-43 4 -64 4q-27 0 -42 -7t-28 -34q-37 0 -114.5 12.5t-118.5 12.5q35 -25 162 -72q61 -23 98 -47q-6 -6 -22 -6q-10 0 -29 4t-29 4q-182 49 -364 100q-53 51 -68.5 123t-15.5 180v78q0 35 52 89t52 89q0 12 -6 31q0 25 -16.5 43t-30.5 23.5 t-24.5 7.5t-30.5 2h-37q-14 0 -27.5 1t-28.5 11z" />
<glyph unicode="&#x2000;" horiz-adv-x="817" />
<glyph unicode="&#x2001;" horiz-adv-x="1634" />
<glyph unicode="&#x2002;" horiz-adv-x="817" />
<glyph unicode="&#x2003;" horiz-adv-x="1634" />
<glyph unicode="&#x2004;" horiz-adv-x="544" />
<glyph unicode="&#x2005;" horiz-adv-x="408" />
<glyph unicode="&#x2006;" horiz-adv-x="272" />
<glyph unicode="&#x2007;" horiz-adv-x="272" />
<glyph unicode="&#x2008;" horiz-adv-x="204" />
<glyph unicode="&#x2009;" horiz-adv-x="326" />
<glyph unicode="&#x200a;" horiz-adv-x="90" />
<glyph unicode="&#x2010;" d="M37 647q-2 16 19.5 35.5t21.5 34.5q0 8 -6 20q-4 14 2 25.5t22 15.5q45 0 56 17q-8 31 -15 63q4 4 17 12q23 16 22 27q0 10 -4 16q-8 49 -13 73t-18 38q0 23 11 29l235 -13l393 -24q18 -8 19 -37q-4 -37 -4 -51q-27 -12 -54 -64q-16 -31 -34 -43q-2 -14 18 -21t8 -26 q-8 -14 -34.5 -26.5t-34.5 -26.5q8 -16 18 -25.5t-2 -19.5q-31 -18 -65.5 -21.5t-67.5 -3.5h-60.5t-65.5 -4t-131 -15t-173 -22q-23 2 -45 6q-25 8 -35 31z" />
<glyph unicode="&#x2011;" d="M37 647q-2 16 19.5 35.5t21.5 34.5q0 8 -6 20q-4 14 2 25.5t22 15.5q45 0 56 17q-8 31 -15 63q4 4 17 12q23 16 22 27q0 10 -4 16q-8 49 -13 73t-18 38q0 23 11 29l235 -13l393 -24q18 -8 19 -37q-4 -37 -4 -51q-27 -12 -54 -64q-16 -31 -34 -43q-2 -14 18 -21t8 -26 q-8 -14 -34.5 -26.5t-34.5 -26.5q8 -16 18 -25.5t-2 -19.5q-31 -18 -65.5 -21.5t-67.5 -3.5h-60.5t-65.5 -4t-131 -15t-173 -22q-23 2 -45 6q-25 8 -35 31z" />
<glyph unicode="&#x2012;" d="M37 647q-2 16 19.5 35.5t21.5 34.5q0 8 -6 20q-4 14 2 25.5t22 15.5q45 0 56 17q-8 31 -15 63q4 4 17 12q23 16 22 27q0 10 -4 16q-8 49 -13 73t-18 38q0 23 11 29l235 -13l393 -24q18 -8 19 -37q-4 -37 -4 -51q-27 -12 -54 -64q-16 -31 -34 -43q-2 -14 18 -21t8 -26 q-8 -14 -34.5 -26.5t-34.5 -26.5q8 -16 18 -25.5t-2 -19.5q-31 -18 -65.5 -21.5t-67.5 -3.5h-60.5t-65.5 -4t-131 -15t-173 -22q-23 2 -45 6q-25 8 -35 31z" />
<glyph unicode="&#x2013;" horiz-adv-x="948" d="M35 688q0 14 2 21q29 6 35 52t41 50q6 10 6 16q-4 23 -6 45q27 16 38 25.5t11 22.5q10 25 -8 51q-27 33 -52 67q0 18 29 31q51 -12 104.5 -16t118.5 -4q35 0 100.5 2t96.5 2l334 14q16 -2 18 -8q-6 -25 -42 -35t-44 -16l-14 -17q14 -16 51 -16h39q23 0 31 -4 q-8 -25 -35 -35q-37 -10 -53 -16q-14 -14 -5 -27q12 -6 54.5 -16.5t62.5 -18.5q0 -16 -27.5 -26.5t-31.5 -12.5q-8 -31 -63.5 -35t-55.5 -22q0 -12 10 -31q-12 -18 -50 -24.5t-48 -20.5q10 -18 42 -28.5t36 -14.5l-4 -18q-39 -12 -79 -16.5t-91 -4.5q-39 0 -131.5 4 t-100.5 4q-39 0 -131 -18q-51 -10 -78 -10q-31 0 -67 10q-43 39 -43 94z" />
<glyph unicode="&#x2014;" horiz-adv-x="2104" d="M36 647q-5 16 53 35.5t58 34.5q0 8 -16 20q-11 14 5 25.5t59 15.5q121 0 150 17q-21 31 -40 63q11 4 46 12q62 16 59 27q0 10 -11 16q-21 49 -34.5 73t-48.5 38q0 23 29 29l632 -13l1056 -24q48 -8 51 -37q-11 -37 -11 -51q-72 -12 -145 -64q-43 -31 -91 -43 q-6 -14 48 -21t22 -26q-22 -14 -93 -26.5t-93 -26.5q22 -16 48.5 -25.5t-5.5 -19.5q-83 -18 -175.5 -21.5t-181.5 -3.5h-162.5t-176 -4t-352 -15t-465.5 -22q-61 2 -120 6q-68 8 -95 31z" />
<glyph unicode="&#x2022;" d="M35 778l4 17l336 331q6 2 25.5 23.5t37.5 11.5l11 -31q-4 -25 -23 -51q-29 -41 -55 -80h22q61 43 125 88q8 2 20.5 24t28.5 11q6 -10 6 -18q0 -12 -8 -31q-18 -41 -18 -45q0 -16 33 -16q6 6 16 8q16 -2 20 -2q0 -14 2.5 -28.5t14.5 -20.5q8 0 24.5 10t22.5 10 q12 0 16 -12q-6 -39 -6 -57q0 -31 33 -31q8 -14 13 -24.5t14 -12.5q16 8 27 12t22 -2q10 -10 10 -24t-6 -28.5t-8 -18.5q-80 -113 -146 -189q-90 -104 -180 -162q-49 0 -68 15q0 27 -32 53q-39 33 -43 49q-8 8 -29 25q-35 27 -45 49q-35 20 -72 39q-121 61 -125 63 q-20 20 -20 45z" />
<glyph unicode="&#x202f;" horiz-adv-x="326" />
<glyph unicode="&#x205f;" horiz-adv-x="408" />
<glyph unicode="&#x25fc;" horiz-adv-x="1505" d="M0 0v1505h1505v-1505h-1505z" />
</font>
</defs>
</svg>
